Загрузка
Возникла ошибка загрузки данных
Регистрация ·
Имя: Пароль:
· Восстановление пароля
Качай с друзьями в разы быстрее в своей локальной сети. Подробности...

Люди в черном 3 / Men in Black 3 (Барри Зонненфельд / Barry Sonnenfeld) [1080p] [2012, Blu-Ray Remux]

Ответить на тему
Активность по релизу
Нет
 
   
 
 
Автор Сообщение

HEDiN


Уровень: 0

Отд: 1,454 TB

На своих: 655,07 GB

Скачано: 1,929 TB

178304 уе

Стаж: 7 лет 2 месяца

Сообщений: 47

post 13-Мар-2013 16:37

[Цитировать] 

Люди в черном 3 / Men in Black III
pic

Год выхода: 2012
Жанр: Фантастика, боевик, комедия, приключения
Cтрана / Выпущено: США / Columbia Pictures, Amblin Entertainment, Hemisphere Media Capital, Imagenation Abu Dhabi FZ, Media Magik Entertainment, Parkes / MacDonald Productions
Продолжительность: 01:45:50
Перевод: Профессиональный (дублированный)
Оригинальная аудио-дорожка: Английская
Cубтитры: Русские, английские
Режиссёр: Барри Зонненфельд / Barry Sonnenfeld
В ролях: Уилл Смит, Джош Бролин, Томми Ли Джонс, Джемейн Клемент, Эмма Томпсон, Майкл Стулбарг, Майк Колтер, Николь Шерзингер, Майкл Чернус, Элис Ив, Билл Хэйдер

Описание: Агент Джей узнает, что никакого защитного галактического щита, способного отразить иноземный удар, не существует. Агент Кей не построил его, потому что был убит в 1969 году. Агент Джей должен совершить путешествие во времени, чтобы спасти Землю и жизнь напарника.

pic pic

Качество видео: Blu-Ray Remux (1080p) (Исходник: Blu-Ray CEE (1080p))
Контейнер: MKV
Видео кодек: H.264
Аудио кодек: AC3, DTS-HD
Видео: MPEG-4 AVC, 28.1 Мбит/с, 1920x1080, 23.976 кадр/с
Аудио #1: Русский AC3 5.1 / 640 kbps / 48 kHz
Аудио #2: Украинский AC3 5.1 / 640 kbps / 48 kHz
Аудио #3: Английский DTS-HD Master 2403 kbps 5.1 / 48 kHz / 2403 kbps / 16-bit (DTS Core: 5.1 / 48 kHz / 1509 kbps / 16-bit)
Cубтитры: Русские, английские

pic pic
Релиз
За исходник Спасибо HDclub
BDInfo
Общее
Полное имя : Ljudi.v.chernom.3.2012.MPEG-4-AVC.BluRay-Remux(1080p).mkv
Формат : Matroska
Версия формата : Version 2
Размер файла : 23,4 Гбайт
Продолжительность : 1 ч. 45 м.
Режим общего битрейта : Переменный
Общий поток : 31,6 Мбит/сек
Дата кодирования : UTC 2012-09-08 07:39:18
Программа кодирования : mkvmerge v5.7.0 ('The Whirlwind') built on Jul 8 2012 20:08:51
Библиотека кодирования : libebml v1.2.3 + libmatroska v1.3.0

Видео
Идентификатор : 1
Формат : AVC
Формат/Информация : Advanced Video Codec
Профиль формата : High@L4.1
Параметр CABAC формата : Да
Параметр ReFrames формата : 4 кадра
Идентификатор кодека : V_MPEG4/ISO/AVC
Продолжительность : 1 ч. 45 м.
Вид битрейта : Переменный
Битрейт : 28,1 Мбит/сек
Максимальный битрейт : 36,0 Мбит/сек
Ширина : 1920 пикселей
Высота : 1080 пикселей
Соотношение сторон : 16:9
Режим частоты кадров : Постоянный
Частота кадров : 23,976 кадра/сек
Цветовое пространство : YUV
Субдискретизация насыщенности : 4:2:0
Битовая глубина : 8 бит
Тип развёртки : Прогрессивная
Бит/(Пиксели*Кадры) : 0.566
Размер потока : 20,8 Гбайт (89%)
Язык : English
Default : Да
Forced : Нет

Аудио #1
Идентификатор : 2
Формат : AC-3
Формат/Информация : Audio Coding 3
Расширение режима : CM (complete main)
Параметр Endianness формата : Big
Идентификатор кодека : A_AC3
Продолжительность : 1 ч. 45 м.
Вид битрейта : Постоянный
Битрейт : 640 Кбит/сек
Каналы : 6 каналов
Расположение каналов : Front: L C R, Side: L R, LFE
Частота : 48,0 КГц
Битовая глубина : 16 бит
Метод сжатия : С потерями
Размер потока : 484 Мбайт (2%)
Язык : Russian
Default : Да
Forced : Нет

Аудио #2
Идентификатор : 3
Формат : DTS
Формат/Информация : Digital Theater Systems
Профиль формата : MA / Core
Идентификатор кодека : A_DTS
Продолжительность : 1 ч. 45 м.
Вид битрейта : Переменный
Битрейт : 1561 Кбит/сек / 1510 Кбит/сек
Каналы : 6 каналов
Расположение каналов : Front: L C R, Side: L R, LFE
Частота : 48,0 КГц
Битовая глубина : 16 бит
Метод сжатия : Без потерь / Lossy
Язык : English
Default : Нет
Forced : Нет

Аудио #3
Идентификатор : 4
Формат : AC-3
Формат/Информация : Audio Coding 3
Расширение режима : CM (complete main)
Параметр Endianness формата : Big
Идентификатор кодека : A_AC3
Продолжительность : 1 ч. 45 м.
Вид битрейта : Постоянный
Битрейт : 640 Кбит/сек
Каналы : 6 каналов
Расположение каналов : Front: L C R, Side: L R, LFE
Частота : 48,0 КГц
Битовая глубина : 16 бит
Метод сжатия : С потерями
Размер потока : 484 Мбайт (2%)
Язык : Ukrainian
Default : Нет
Forced : Нет

Текст #1
Идентификатор : 5
Формат : PGS
Режим смешивания : zlib
Идентификатор кодека : S_HDMV/PGS
Идентификатор кодека/Информация : The same subtitle format used on BDs/HD-DVDs
Язык : Russian
Default : Нет
Forced : Нет

Текст #2
Идентификатор : 6
Формат : PGS
Режим смешивания : zlib
Идентификатор кодека : S_HDMV/PGS
Идентификатор кодека/Информация : The same subtitle format used on BDs/HD-DVDs
Язык : English
Default : Нет
Forced : Нет

Меню
00:00:00.000 : :Chapter 01
00:06:09.577 : :Chapter 02
00:11:27.478 : :Chapter 03
00:16:58.809 : :Chapter 04
00:22:36.229 : :Chapter 05
00:31:24.632 : :Chapter 06
00:37:36.420 : :Chapter 07
00:42:43.018 : :Chapter 08
00:48:55.849 : :Chapter 09
00:53:58.235 : :Chapter 10
00:59:27.772 : :Chapter 11
01:05:52.782 : :Chapter 12
01:11:56.312 : :Chapter 13
01:19:50.619 : :Chapter 14
01:27:57.063 : :Chapter 15
01:35:30.683 : :Chapter 16
Скриншоты
pic pic pic pic

pic



Последний раз редактировалось: HEDiN (2013-03-13 16:38), всего редактировалось 1 раз
[Профиль]  [ЛС] 

HEDiN


Уровень: 0

Отд: 1,454 TB

На своих: 655,07 GB

Скачано: 1,929 TB

178304 уе

Стаж: 7 лет 2 месяца

Сообщений: 47

post 13-Мар-2013 16:37 (спустя 36 секунд)

[Цитировать] 

Субтитры: Русские (полные (2 вида), форсированные), Английские (полные, SDH).

Расшифровка русских полных субтитров:
1. Русские BD.
2. Русские набраны по дубляжу (Тайпсеттинг: asdf_, dgonik008, Aiser; правки Voronine).
[Профиль]  [ЛС] 
Показать сообщения:    
Похожие темы
Форум Тема Автор Торрент Отв. Посл. сообщение
./templates/default/images/folder_dl.gif * Тестовый форум Люди в черном: Трилогия / Men in Black: Trilogy (1997-2012) BDRip 1080p от R.G. GoldenShara mihis 0 | 0
13,09 GB

0 | 1451

34

2012-09-22 23:32
mihis latest
./templates/default/images/folder_dl.gif Зарубежные фильмы 2010-2012 Люди в черном 3 / Men in Black III (Барри Зонненфельд / Barry Sonnenfeld) [2012, Фантастика,... Роман84 0 | 0
1,46 GB

1 | 378

172

2013-06-05 17:38
Алексей712 latest
./templates/default/images/folder_dl.gif Зарубежные фильмы 2010-2012 Люди в черном 3 / Men in Black III (Барри Зонненфельд / Barry Sonnenfeld) [2012, фантастика,... SILVER37RUS 0 | 0
743 MB

0 | 179

39

2012-09-07 01:04
SILVER37RUS latest
./templates/default/images/folder_dl.gif Зарубежные Фильмы HD до 2012 (Рипы 720p и 1080p) Люди в черном 3 / Men in Black III (Барри Зонненфельд) [2012 г., Фантастика, комедия, приключения,... SERAFIM 0 | 0
14,48 GB

1 | 1414

50

2012-09-07 20:26
Xamer latest
./templates/default/images/folder_dl.gif Зарубежные фильмы 2010-2012 Люди в черном 3 / Men in Black III (Барри Зонненфельд / Barry Sonnenfeld) [2012 г.,фантастика,... shum78 0 | 0
1,45 GB

0 | 736

298

2012-09-04 06:59
shum78 latest
./templates/default/images/folder_dl.gif Зарубежные фильмы 2010-2012 Люди в черном 3 / Men in Black III (Барри Зонненфельд / Barry Sonnenfeld) [2012, фантастика,... SILVER37RUS 0 | 0
2,06 GB

5 | 840

401

2012-09-07 16:31
Алексей712 latest
./templates/default/images/folder_dl.gif Зарубежные фильмы 2001-2005 Люди в черном 2 / Men in Black II (Барри Зонненфельд / Barry Sonnenfeld) [2002, фантастика,... SILVER37RUS 0 | 0
1,45 GB

0 | 1028

119

2012-05-08 11:37
SILVER37RUS latest
./templates/default/images/folder_dl.gif Зарубежные Фильмы HD до 2012 (Рипы 720p и 1080p) Люди в черном 2 / Men in Black II (Барри Зонненфельд / Barry Sonnenfeld) [2002, фантастика,... SERAFIM 0 | 0
4,43 GB

1 | 1145

23

2012-05-06 18:31
Smir latest
./templates/default/images/folder_dl.gif Зарубежные фильмы 1991-2000 Люди в черном / Men in Black (Барри Зонненфельд / Barry Sonnenfeld) [1997, США, фантастика,... Moe 0 | 0
1,86 GB

0 | 863

41

2011-06-25 15:24
Moe latest
./templates/default/images/folder_dl.gif * Фильмы в авторском переводе и озвучке Люди в черном 3 / Men in Black 3 (Барри Зонненфельд / Barry Sonnenfeld) [2012 г., фантастика,... LAVR 0 | 0
0 B

3 | 433

2013-02-26 14:44
LAVR latest
./templates/default/images/folder_dl.gif * Зарубежные фильмы HD до 2012 (Диски и ремуксы) Люди в черном 3 / Men in Black 3 (Барри Зонненфельд) [2012 г., фантастика, боевик, комедия,... Alekseу 0 | 0
0 B

3 | 3098

2012-09-08 10:23
Alekseу latest
./templates/default/images/folder_dl.gif * Зарубежные фильмы 2010-2012 Люди в черном 3 / Men in Black III (Барри Зонненфельд / Barry Sonnenfeld) [2012, фантастика,... SILVER37RUS 0 | 0
0 B

6 | 2077

2012-09-03 21:32
SILVER37RUS latest
./templates/default/images/folder_dl.gif * 3D Кинофильмы Люди в черном 3 / Men in Black 3 3D (Барри Зонненфельд) [2012 г., фантастика, боевик, комедия,... kor_leon 0 | 0
0 B

0 | 1571

2012-09-07 13:10
kor_leon latest
./templates/default/images/folder_dl.gif * Зарубежные фильмы 2010-2012 Люди в черном 3 / Men in Black III (Барри Зонненфельд / Barry Sonnenfeld) [2012, фантастика,... SILVER37RUS 0 | 0
0 B

0 | 215

2012-09-03 05:58
SILVER37RUS latest
./templates/default/images/folder_dl.gif * Тестовый форум Люди в черном 2 / Men in Black II (2002) 720p BDRip kosteg37 0 | 0
0 B

0 | 463

2013-04-15 11:14
kosteg37 latest
Ответить на тему

Текущее время: 19-Окт 09:55

Часовой пояс: GMT + 3



Вы не можете начинать темы
Вы не можете отвечать на сообщения
Вы не можете редактировать свои сообщения
Вы не можете удалять свои сообщения
Вы не можете голосовать в опросах
Вы не можете прикреплять файлы к сообщениям
Вы не можете скачивать файлы