Загрузка
Возникла ошибка загрузки данных
Регистрация ·
Имя: Пароль:
· Восстановление пароля
Качай с друзьями в разы быстрее в своей локальной сети. Подробности...

[SERIAL] Универ / Сезон 1-5 (1-255 серия), + Новая общага 1-4 сезон (1-61 серия), (Пётр Точилин, Жанна Кадникова, Иван Китаев) [2008, Комедия, ситком, DVDRip] [MP4, 480x]

Ответить на тему
 
Автор Сообщение

дмитри


Уровень: 1

Отд: 31,423 TB

На своих: 29,495 TB

Скачано: 1,479 TB

366809 уе

Стаж: 7 лет

Сообщений: 3085

post 04-Мар-2013 07:08

[Цитировать] 

Универ
pic
Год выпуска: 2008
Страна: Россия
Жанр: Комедия, ситком
Продолжительность: 00:24:30
Перевод: Не требуется
Русские субтитры: нет
Режиссер: Пётр Точилин, Жанна Кадникова, Иван Китаев
В ролях: Андрей Гайдулян, Алексей Гаврилов, Виталий Гогунский, Мария Кожевникова, Валентина Рубцова, Арарат Кещян, Алексей Климушкин и др.
Описание: сериал-ситком на телеканале «ТНТ» про жизнь студентов, проживающих в одном блоке общежития, который является главным местом действия. События сериала также происходят во многих других местах, в том числе в офисе и доме на Рублёвке олигарха Сильвестра Андреевича, отца Саши. В эфире с 25 августа 2008 года по 19 мая 2011 года. 10 октября 2011 года состоялась премьера телесериала «Универ. Новая общага» на телеканале «ТНТ», продолжающего телесериал «Универ».
Качество: DVDRip
Формат: MP4
Видео кодек: H.264
Аудио кодек: AAC
Видео: MPEG4 Video (H264); 480x272 (16:9); 449 kbps; 24.00fps
Аудио: AAC 44100Hz stereo 126 kbps
ТХ/MediaInfo
ОбщееПолное имя : ...Универ [480x272, mp4]Универ [season 1, 480x272, mp4]Univer.s01e001.mp4Формат : MPEG-4Профиль формата : Base Media / Version 2Идентификатор кодека : mp42Размер файла : 100 МбайтПродолжительность : 24 м.Режим общего битрейта : ПеременныйОбщий поток : 580 Кбит/секДата кодирования : UTC 2013-02-24 14:15:07Дата пометки : UTC 2013-02-24 14:15:11Программа кодирования : mp4creator 1.4.4
ВидеоИдентификатор : 1Формат : AVCФормат/Информация : Advanced Video CodecПрофиль формата : Baseline@L1.3Параметр CABAC формата : НетПараметр ReFrames формата : 2 кадраИдентификатор кодека : avc1Идентификатор кодека/Информация : Advanced Video CodingПродолжительность : 24 м.Вид битрейта : ПеременныйБитрейт : 451 Кбит/секШирина : 480 пикселейВысота : 272 пикселяСоотношение сторон : 16:9Режим частоты кадров : ПостоянныйЧастота кадров : 24,000 кадра/секЦветовое пространство : YUVСубдискретизация насыщенности : 4:2:0Битовая глубина : 8 битТип развёртки : ПрогрессивнаяБит/(Пиксели*Кадры) : 0.144Размер потока : 78,0 Мбайт (78%)Язык : EnglishДата кодирования : UTC 2013-02-24 14:15:07Дата пометки : UTC 2013-02-24 14:15:09
АудиоИдентификатор : 2Формат : AACФормат/Информация : Advanced Audio CodecПрофиль формата : LCИдентификатор кодека : 40Продолжительность : 24 м.Продолжительность оригинала : 24 м.Вид битрейта : ПеременныйБитрейт : 127 Кбит/секМаксимальный битрейт : 153 Кбит/секКаналы : 2 каналаРасположение каналов : Front: L RЧастота : 44,1 КГцМетод сжатия : С потерямиРазмер потока : 22,0 Мбайт (22%)Размер потока оригинала : 22,0 Мбайт (22%)Язык : EnglishДата кодирования : UTC 2013-02-24 14:15:09Дата пометки : UTC 2013-02-24 14:15:11
Скриншоты
pic pic pic pic pic pic pic pic pic pic pic pic pic
Другие сериалы в таком же качестве
picpicpicpicpicpicpicpicpicpicpicpicpicpicpicpicpicpicpicpicpicpicpicpicpicpicpicpicpicpicpicpicpicpicpicpicpicpicpicpicpicpicpicpicpicpic
Не забываем нажать на "Спасибо"!
pic

[Профиль]  [ЛС] 

KakoS


Уровень: 0

Отд: 7,227 TB

На своих: 1,761 TB

Скачано: 1,886 TB

403281 уе

Стаж: 7 лет 9 месяцев

Сообщений: 104

post 04-Апр-2014 13:00 (спустя 1 год 1 месяц)

[Цитировать] 

дмитри

Встаньте, пожалуйста, на раздачу
[Профиль]  [ЛС] 
Показать сообщения:    
Ответить на тему

Текущее время: 14-Ноя 16:38

Часовой пояс: GMT + 3



Вы не можете начинать темы
Вы не можете отвечать на сообщения
Вы не можете редактировать свои сообщения
Вы не можете удалять свои сообщения
Вы не можете голосовать в опросах
Вы не можете прикреплять файлы к сообщениям
Вы не можете скачивать файлы