Загрузка
Возникла ошибка загрузки данных
Регистрация ·
Имя: Пароль:
· Восстановление пароля
Качай с друзьями в разы быстрее в своей локальной сети. Подробности...

Зона 51: Рассекречено (Взгляд изнути: Секреты зоны 51) / Area 51 Declassified (Петер Йост / Peter Yost) [2010 г., Документальный, HDTVRip 720p], National Geographic

Ответить на тему
Активность по релизу
Нет
 
   
 
 
Автор Сообщение

фёдор321


Уровень: 2

Отд: 13,803 TB

На своих: 6,947 TB

Скачано: 2,074 TB

368961 уе

Стаж: 7 лет 4 месяца

Сообщений: 276

post 02-Июн-2012 09:32

[Цитировать] 

Зона 51: Рассекречено (Взгляд изнути: Секреты зоны 51) / Area 51 Declassified
pic
Год выпуска: 2010
Страна: США (Pangloss Films, LLC), США (National Geographic Television)
Жанр: Документальный
Продолжительность: 00:45:28
Перевод: Профессиональный (одноголосый)
Русские субтитры: есть (на отсутствующий в русской ТВ-версии фрагмент)
Режиссер: Петер Йост / Peter Yost
Описание: ЦРУ никогда не признавало и никогда не признает, что Зона 51 существовала. Зона 51 была создана ЦРУ в 1955 году, и названа по номеру квадрата на сетке координат. Закрытый район в штате Невада, недалеко от городка Рэйчел, где по слухам, нашли пристанище посетившие Землю НЛО и инопланетяне. Впервые мы услышим рассказы обитателей этой зоны, работавших на этом уникальном сверхсекретном военном объекте, который официально не существует и никогда не существовал. Благодаря недавно рассекреченной информации появилась возможность рассказать о необыкновенных технических новшествах и технологиях, которые нашли применение и уже давно используются в этом закрытом от посторонних глаз мире, долгое время существующем под покровом запретного молчания...
Доп. информация: Релиз студии pic
Автор англоязычного рипа - DiVERGE, автор постера, сведение дорожек и тайминг субтитров - nyctalus, перевод субтитров выполнен Violeta, за что мы ей очень признательны, для работы использована дорожка из релизов OLLARI и AlexSmit
Качество: HDTVRip
Формат: MKV
Видео кодек: x264
Аудио кодек: AC3
Видео: MPEG-4 AVC, 2983 Кбит/с, 1280x720, 29.970 fps
Аудио 1: Русский (AC3, 2 ch, 128 Кбит/с, 48 kHz),
Аудио 2: English (AC3, 6 ch, 384 Кбит/с, 48 kHz)
Скриншоты
picpicpicpicpicpic
MediaInfo
General
Complete name : Sekraty.zony.51.2010.x264.HDTVRip(720p)_Kinozal-HD.mkv
Format : Matroska
File size : 1.13 GiB
Duration : 45mn 28s
Overall bit rate : 3 566 Kbps
Encoded date : UTC 2011-07-05 19:18:46
Writing application : mkvmerge v3.2.0 ('Beginnings') built on Feb 12 2010 16:46:17
Writing library : libebml v0.7.9 + libmatroska v0.8.1
Video #1
ID : 1
Format : AVC
Format/Info : Advanced Video Codec
Format profile : High@L4.1
Format settings, CABAC : Yes
Format settings, ReFrames : 4 frames
Muxing mode : Container profile=Unknown@4.1
Codec ID : V_MPEG4/ISO/AVC
Duration : 45mn 26s
Bit rate : 2 983 Kbps
Nominal bit rate : 3 053 Kbps
Width : 1 280 pixels
Height : 720 pixels
Display aspect ratio : 16:9
Frame rate : 29.970 fps
Resolution : 24 bits
Colorimetry : 4:2:0
Scan type : Progressive
Bits/(Pixel*Frame) : 0.108
Stream size : 969 MiB (84%)
Writing library : x264 core 115 r1995 c1e60b9
Encoding settings : cabac=1 / ref=4 / deblock=1:0:0 / analyse=0x3:0x113 / me=umh / subme=7 / psy=1 / psy_rd=1.00:0.00 / mixed_ref=1 / me_range=16 / chroma_me=1 / trellis=1 / 8x8dct=1 / cqm=0 / deadzone=21,11 / fast_pskip=0 / chroma_qp_offset=-2 / threads=14 / sliced_threads=0 / nr=0 / decimate=1 / interlaced=0 / bluray_compat=0 / constrained_intra=0 / bframes=4 / b_pyramid=2 / b_adapt=1 / b_bias=0 / direct=1 / weightb=1 / open_gop=0 / weightp=2 / keyint=300 / keyint_min=30 / scenecut=40 / intra_refresh=0 / rc_lookahead=40 / rc=2pass / mbtree=1 / bitrate=3053 / ratetol=1.0 / qcomp=0.60 / qpmin=0 / qpmax=69 / qpstep=4 / cplxblur=20.0 / qblur=0.5 / ip_ratio=1.40 / aq=1:1.00
Language : English
Audio #2
ID : 2
Format : AC-3
Format/Info : Audio Coding 3
Codec ID : A_AC3
Duration : 45mn 28s
Bit rate mode : Constant
Bit rate : 128 Kbps
Channel(s) : 2 channels
Channel positions : L R
Sampling rate : 48.0 KHz
Stream size : 41.6 MiB (4%)
Title : zona51
Language : Russian
Audio #3
ID : 3
Format : AC-3
Format/Info : Audio Coding 3
Codec ID : A_AC3
Duration : 45mn 28s
Bit rate mode : Constant
Bit rate : 384 Kbps
Channel(s) : 6 channels
Channel positions : Front: L C R, Surround: L R, LFE
Sampling rate : 48.0 KHz
Stream size : 125 MiB (11%)
Title : area51
Language : English
Text #4
ID : 4
Format : UTF-8
Codec ID : S_TEXT/UTF8
Codec ID/Info : UTF-8 Plain Text
Title : zona51_sub
Language : Russian

[Профиль]  [ЛС] 

PIONER.37


Уровень: 13

Отд: 97,912 TB

На своих: 23,427 TB

Скачано: 5,723 TB

480187 уе

Стаж: 7 лет 5 месяцев

Сообщений: 982

post 02-Июн-2012 10:21 (спустя 49 минут)

[Цитировать] 

Глянем

_________________
Я старый пират и не знаю слов лицензионного соглашения.
[Профиль]  [ЛС] 
Показать сообщения:    
Ответить на тему

Текущее время: 23-Июн 07:12

Часовой пояс: GMT + 3



Вы не можете начинать темы
Вы не можете отвечать на сообщения
Вы не можете редактировать свои сообщения
Вы не можете удалять свои сообщения
Вы не можете голосовать в опросах
Вы не можете прикреплять файлы к сообщениям
Вы не можете скачивать файлы