Загрузка
Возникла ошибка загрузки данных
Регистрация ·
Имя: Пароль:
· Восстановление пароля
Качай с друзьями в разы быстрее в своей локальной сети. Подробности...

Моя жизнь с гориллами / My Gorilla Life [2012, документальный, HDTV)

Ответить на тему
Активность по релизу
Нет
 
   
 
 
Автор Сообщение

фёдор321


Уровень: 2

Отд: 13,803 TB

На своих: 6,947 TB

Скачано: 2,075 TB

367796 уе

Стаж: 7 лет 6 месяцев

Сообщений: 276

post 06-Апр-2012 21:04

[Цитировать] 

Моя жизнь с гориллами / My Gorilla Life
pic
Год выпуска: 2012
Страна: С.Ш.А.
Жанр: Приключения / документальный
Продолжительность: 45:18
Перевод: Руссий
Русские субтитры: Нет
В главных ролях: Анжелика Тодт и гориллы
Автор рипа: Nikolay_-_-
Канал: pic
Описание: Девушка прожила более 10 лет с гориллами и неё с ними сложились уникальные отношения, благодаря чему получились потрясающие кадры.
Качество: HDTV
Формат: TS
Видео: H.264; 1920x1080 (16:9); 25.000 fps; 9535 kbps
Аудио 1: RUS; MP2; 48000 Hz; 192 kbps; 2 channels
Аудио 2: ENG; MP2; 48000 Hz; 192 kbps; 2 channels
MediaInfo
Общее
Идентификатор : 1 (0x1)
Полное имя : F:ЗакачкиМоя жизнь с гориллами-Nikolay_-_-.ts
Формат : MPEG-TS
Размер файла : 3,30 Гбайт
Продолжительность : 45 м.
Режим общего битрейта : Переменный
Общий поток : 10,4 Мбит/сек
Максимальный общий битрейт : 35,5 Мбит/сек
Видео
Идентификатор : 4113 (0x1011)
Идентификатор меню : 1 (0x1)
Формат : AVC
Формат/Информация : Advanced Video Codec
Профиль формата : Main@L4.0
Параметр CABAC формата : Да
Параметр ReFrames формата : 3 кадра
Идентификатор кодека : 27
Продолжительность : 45 м.
Вид битрейта : Переменный
Битрейт : 9535 Кбит/сек
Максимальный битрейт : 40,0 Мбит/сек
Ширина : 1920 пикселей
Высота : 1080 пикселей
Соотношение сторон : 16:9
Частота кадров : 25,000 кадров/сек
Стандарт вещания : Component
Цветовое пространство : YUV
Субдискретизация насыщенности : 4:2:0
Битовая глубина : 8 бит
Тип развёртки : Чересстрочная
Порядок развёртки : Верхнее поле первое
Бит/(Пиксели*Кадры) : 0.184
Размер потока : 3,02 Гбайт (91%)
Основные цвета : BT.709-5, BT.1361, IEC 61966-2-4, SMPTE RP177
Характеристики трансфера : BT.709-5, BT.1361
Коэффициенты матрицы : BT.709-5, BT.1361, IEC 61966-2-4 709, SMPTE RP177
Аудио #1
Идентификатор : 4352 (0x1100)
Идентификатор меню : 1 (0x1)
Формат : MPEG Audio
Версия формата : Version 1
Профиль формата : Layer 2
Идентификатор кодека : 4
Продолжительность : 45 м.
Вид битрейта : Постоянный
Битрейт : 192 Кбит/сек
Каналы : 2 канала
Частота : 48,0 КГц
Метод сжатия : С потерями
Задержка видео : 8 мс.
Размер потока : 62,1 Мбайт (2%)
Язык : Russian
Аудио #2
Идентификатор : 4353 (0x1101)
Идентификатор меню : 1 (0x1)
Формат : MPEG Audio
Версия формата : Version 1
Профиль формата : Layer 2
Идентификатор кодека : 4
Продолжительность : 45 м.
Вид битрейта : Постоянный
Битрейт : 192 Кбит/сек
Каналы : 2 канала
Частота : 48,0 КГц
Метод сжатия : С потерями
Задержка видео : 8 мс.
Размер потока : 62,1 Мбайт (2%)
Язык : English
Скриншоты
picpicpicpic

picpic

Источник: pic

[Профиль]  [ЛС] 
Показать сообщения:    
Похожие темы
Форум Тема Автор Торрент Отв. Посл. сообщение
./templates/default/images/folder_dl.gif * Новые релизы отечественного кинематографа Моя жизнь (Алексей Луканев) [2018 Мелодрама WEB-DLRip] iTunes mihis 0 | 0
1,46 GB

0 | 122

17

2018-07-06 20:15
mihis latest
./templates/default/images/folder_dl.gif * Разные зарубежные сериалы Ты моя жизнь / Sos Mi Vida (230) (Родолфо Антунес, Джордж Бехара) [2006 г., Сериал, TVRip] Andi777 0 | 0
0 B

0 | 334

2013-03-10 08:03
Andi777 latest
Ответить на тему

Текущее время: 15-Авг 00:23

Часовой пояс: GMT + 3



Вы не можете начинать темы
Вы не можете отвечать на сообщения
Вы не можете редактировать свои сообщения
Вы не можете удалять свои сообщения
Вы не можете голосовать в опросах
Вы не можете прикреплять файлы к сообщениям
Вы не можете скачивать файлы