Загрузка
Возникла ошибка загрузки данных
Регистрация ·
Имя: Пароль:
· Восстановление пароля
Качай с друзьями в разы быстрее в своей локальной сети. Подробности...

33 квадратных метра [1997-2004 г., Юмор, DVDRip]

Ответить на тему
Активность по релизу
Нет
 
   
 
 
Автор Сообщение

Karlito2012


Уровень: 0

Отд: 2,233 TB

На своих: 536,27 GB

Скачано: 1,119 TB

277136 уе

Стаж: 9 лет 8 месяцев

Сообщений: 411

post 16-Фев-2012 13:05

[Цитировать] 

33 квадратных метра+BONUS

pic
Год выпуска: 1997-2004
Страна: Россия
Жанр: Юмор
Режиссер: Андрей Кузнецов
В ролях: Сергей Белоголовцев, Татьяна Лазарева, Андрей Бочаров, Павел Кабанов

Описание: 33 квадратных метра - комедийный телесериал ОСП-студии, который повествует о семействе Звездуновых. Над сериалом работали сценаристы Василий Антонов, Александр Толоконников, Александр Бачило, Дмитрий Зверьков, Максим Туханин, Иван Филиппов и Андрей Кузнецов - автор известного сериала <Моя Прекрасная Няня>.

BONUS: Три серии "Около 33 кв метров" и 7 серий "Уроки спортивного мужества".
Список серий
Нулевой сезон (Приквел) (1997 г.)
эти серии были показаны в программе осп студия
«Невеста Ира»
«Смазываем… двери»
«Перестановка холодильника»
«Участковый врач»
«Ах, эти школьные уроки!»
«Романтическое свидание»
«Армейские байки (23 февраля)»
«Приезд деверя»
«Поздравляем с 8-м марта»
«Андрюша едет в лагерь… пионерский!»
«Поездка в Багамы»
«По разные стороны баррикад»
«Половое воспитание»
«Приезд подруги»
«Проблемы генеральной уборки»
Первый сезон (1998 г.)
«Про „Темура и ево каманду“»
«Про то, как папа строил забор»
«Про любовь»
«Про клубнику»
«Про рыбалку»
«Про зарядку»
«Про корт и маракуйю»
«Про президента»
Второй сезон (1999—2000 гг.)
Этот сезон проходит в городе, в двухкомнатной квартире (33 квадратных метра), а также на даче, причём съёмки проводились не на оригинальной даче (дом зелёного цвета, расположенный возле Казанской железной дороги) первого сезона, а на двух совершенно непохожих других (дом серого цвета с верандой и ставнями в 1999 г. и дом синего цвета совершенно другой архитектуры в 2000 г. Всего вышло 26 серий этого сезона. В актёрский коллектив вливается Михаил Шац. То он врач скорой помощи, то сосед по даче, то сосед по лестничной площадке. В последней серии сезона (это специальный новогодний выпуск) также появляются звёзды, которые играют самих себя: Владимир Жириновский, группа «Стрелки», Иван Усачёв, Отар Кушанашвили, Филипп Киркоров.
«Визит доктора»
«Космический волк»
«Летний призыв»
«Рэкет»
«Родная кровь»
«Рыболов-спортсмен»
«Курортный роман»
«Маньяк у обочины»
«Находка для шпиона»
«Гамлет, принц дачный»
«Джентльмены у дачи»
«Купите дедушку»
«Секунданты решают все»
«Смотрины»
«Собака Звездуновых»
«Один день Ивана Денисовича»
«Береги автомобиля!»
«Отец невесты», 1-я часть
«Отец невесты», 2-я часть
«Наезд»
«Малыш и его К°», 1-я часть
«Малыш и его К°», 2-я часть
«Репетитор»
«Психоаналитик», 1-я часть
«Психоаналитик», 2-я часть
«Новогодняя елка Звездуновых»
Третий сезон (2003 г.)
Снова всё действие проходит на даче. Доступны 7 серий. В этом сезоне Андрей не появляется, зато к семье Звездуновых неожиданно приезжает двоюродный брат Сергея Геннадьевича Николай (Олег Комаров), уволившийся из армии.
«Возвращение бармалея»
«Почтальон стучит дважды»
«Приподнятая цилина»
«Женитьба Николая»
«Хождение по лесу»
«Пиковая бабка»
«Трудоустройство»
Четвёртый сезон (2004—2005 гг.)
Доступны 30 серий. Данный сезон резко отличается от «классических», так как является ситкомом. Данный метод съёмки сказался на сериале скорее отрицательно: собственная оригинальная атмосфера в этом сезоне практически утрачена. В результате здесь «33 квадратных метра» превратились в ещё один «калькированный» юмористический сериал. Подросший Андрюша поступает в техникум (здесь сериал перекликается со своим ответвлением «Вне родных квадратных метров»), пытается овладеть новой профессией, занимается бизнесом и ходит по ночным клубам, а у Сергея Геннадьевича неожиданно появляется дочь Света (Анна Цуканова).
«Акула пера»
«Амнезия»
«Любовь нечаянно как грянет»
«Клуб „Какаду“»
«Знакомство с родителями»
«Ложный вызов»
«Генеральная угроза»
«В тихом омуте»
«Гены не врут»
«Андрейкин бизнес»
«Хочешь похудеть, спроси»
«Опиум для народа»
«Бедный сантехник»
«Подруга молодости»
«Самофинанисирование»
«Московский пленник»
«Индиана Ганс»
«Мешок»
«Музыкальный ринг»
«Выборы управдома»
«Волшебная сила искусства»
«Вешалка начинается с театра»
«Аты-баты, шли в солдаты»
«Подопытная свинка»
«Страусиное яйцо»
«Привет, я ваша тётя!»
«Уходя — уходи»
«Заморские гости»
«Зигзаг удачи»
«Вперёд, Россия!»
Картинки
pic
pic
pic
Отчет MediaInfo c первых серий в сезоне.
0 сезон Приквел (Семейный сериал) (1997) / 01 Невеста Ира 1997.avi
Формат : AVI
Формат/Информация : Audio Video Interleave
Размер файла : 125 Мбайт
Продолжительность : 7 м. 4 с.
Общий поток : 2464 Кбит/сек
Библиотека кодирования : VirtualDub-MPEG2 build 24600/release

Видео
Идентификатор : 0
Формат : MPEG-4 Visual
Параметр BVOP формата : 1
Параметр QPel формата : Нет
Параметр GMC формата : Без точки перехода
Параметр матрицы формата : Default (H.263)
Режим смешивания : Сжатый битовый поток
Идентификатор кодека : DX50
Идентификатор кодека/Подсказка : DivX 5
Продолжительность : 7 м. 4 с.
Битрейт : 2198 Кбит/сек
Ширина : 704 пикселя
Высота : 528 пикселей
Соотношение сторон : 4:3
Частота кадров : 25,000 кадров/сек
Цветовое пространство : YUV
Субдискретизация насыщенности : 4:2:0
Битовая глубина : 8 бит
Тип развёртки : Прогрессивная
Метод сжатия : С потерями
Бит/(Пиксели*Кадры) : 0.237
Размер потока : 111 Мбайт (89%)
Библиотека кодирования : DivX 5.2.1 (DrDivX 106) (UTC 2004-09-08)

Аудио
Идентификатор : 1
Формат : AC-3
Формат/Информация : Audio Coding 3
Расширение режима : CM (complete main)
Идентификатор кодека : 2000
Продолжительность : 7 м. 4 с.
Вид битрейта : Постоянный
Битрейт : 256 Кбит/сек
Каналы : 2 канала
Расположение каналов : Front: L R
Частота : 48,0 КГц
Битовая глубина : 16 бит
Метод сжатия : С потерями
Размер потока : 13,0 Мбайт (10%)
Выравнивание : Соединение по промежуткам
Продолжительность промежутка : 40 мс. (1,00 видеокадр)
Время предзагрузки промежутка : 512 мс.
1 сезон Дачные истории (Семейный сериал) (1998) / 01 История № 03 Про 'Темура и ево каманду' 1998.avi
Формат : AVI
Формат/Информация : Audio Video Interleave
Размер файла : 449 Мбайт
Продолжительность : 26 м.
Общий поток : 2403 Кбит/сек
Библиотека кодирования : VirtualDub-MPEG2 build 24600/release

Видео
Идентификатор : 0
Формат : MPEG-4 Visual
Параметр BVOP формата : 1
Параметр QPel формата : Нет
Параметр GMC формата : Без точки перехода
Параметр матрицы формата : Default (H.263)
Режим смешивания : Сжатый битовый поток
Идентификатор кодека : DX50
Идентификатор кодека/Подсказка : DivX 5
Продолжительность : 26 м.
Битрейт : 2202 Кбит/сек
Ширина : 704 пикселя
Высота : 528 пикселей
Соотношение сторон : 4:3
Частота кадров : 25,000 кадров/сек
Цветовое пространство : YUV
Субдискретизация насыщенности : 4:2:0
Битовая глубина : 8 бит
Тип развёртки : Прогрессивная
Метод сжатия : С потерями
Бит/(Пиксели*Кадры) : 0.237
Размер потока : 411 Мбайт (92%)
Библиотека кодирования : DivX 5.2.1 (DrDivX 106) (UTC 2004-09-08)

Аудио
Идентификатор : 1
Формат : AC-3
Формат/Информация : Audio Coding 3
Расширение режима : CM (complete main)
Идентификатор кодека : 2000
Продолжительность : 26 м.
Вид битрейта : Постоянный
Битрейт : 192 Кбит/сек
Каналы : 2 канала
Расположение каналов : Front: L R
Частота : 48,0 КГц
Битовая глубина : 16 бит
Метод сжатия : С потерями
Размер потока : 35,9 Мбайт (8%)
Выравнивание : Соединение по промежуткам
Продолжительность промежутка : 40 мс. (1,00 видеокадр)
Время предзагрузки промежутка : 512 мс.
2 сезон (1999-2000) / 01 Визит доктора 1999.avi
Формат : AVI
Формат/Информация : Audio Video Interleave
Размер файла : 449 Мбайт
Продолжительность : 26 м.
Общий поток : 2403 Кбит/сек
Библиотека кодирования : VirtualDub-MPEG2 build 24600/release

Видео
Идентификатор : 0
Формат : MPEG-4 Visual
Параметр BVOP формата : 1
Параметр QPel формата : Нет
Параметр GMC формата : Без точки перехода
Параметр матрицы формата : Default (H.263)
Режим смешивания : Сжатый битовый поток
Идентификатор кодека : DX50
Идентификатор кодека/Подсказка : DivX 5
Продолжительность : 26 м.
Битрейт : 2201 Кбит/сек
Ширина : 704 пикселя
Высота : 528 пикселей
Соотношение сторон : 4:3
Частота кадров : 25,000 кадров/сек
Цветовое пространство : YUV
Субдискретизация насыщенности : 4:2:0
Битовая глубина : 8 бит
Тип развёртки : Прогрессивная
Метод сжатия : С потерями
Бит/(Пиксели*Кадры) : 0.237
Размер потока : 411 Мбайт (92%)
Библиотека кодирования : DivX 5.2.1 (DrDivX 106) (UTC 2004-09-08)

Аудио
Идентификатор : 1
Формат : AC-3
Формат/Информация : Audio Coding 3
Расширение режима : CM (complete main)
Идентификатор кодека : 2000
Продолжительность : 26 м.
Вид битрейта : Постоянный
Битрейт : 192 Кбит/сек
Каналы : 2 канала
Расположение каналов : Front: L R
Частота : 48,0 КГц
Битовая глубина : 16 бит
Метод сжатия : С потерями
Размер потока : 35,9 Мбайт (8%)
Выравнивание : Соединение по промежуткам
Продолжительность промежутка : 40 мс. (1,00 видеокадр)
Время предзагрузки промежутка : 512 мс.
3 сезон (2003) Возвращение Бармалея / 1 Возвращение бармалея 2003.avi
Формат : AVI
Формат/Информация : Audio Video Interleave
Размер файла : 371 Мбайт
Продолжительность : 21 м.
Общий поток : 2402 Кбит/сек
Библиотека кодирования : VirtualDub-MPEG2 build 24600/release

Видео
Идентификатор : 0
Формат : MPEG-4 Visual
Параметр BVOP формата : 1
Параметр QPel формата : Нет
Параметр GMC формата : Без точки перехода
Параметр матрицы формата : Default (H.263)
Режим смешивания : Сжатый битовый поток
Идентификатор кодека : DX50
Идентификатор кодека/Подсказка : DivX 5
Продолжительность : 21 м.
Битрейт : 2200 Кбит/сек
Ширина : 704 пикселя
Высота : 444 пикселя
Соотношение сторон : 1,586
Частота кадров : 25,000 кадров/сек
Цветовое пространство : YUV
Субдискретизация насыщенности : 4:2:0
Битовая глубина : 8 бит
Тип развёртки : Прогрессивная
Метод сжатия : С потерями
Бит/(Пиксели*Кадры) : 0.282
Размер потока : 340 Мбайт (92%)
Библиотека кодирования : DivX 5.2.1 (DrDivX 106) (UTC 2004-09-08)

Аудио
Идентификатор : 1
Формат : AC-3
Формат/Информация : Audio Coding 3
Расширение режима : CM (complete main)
Идентификатор кодека : 2000
Продолжительность : 21 м.
Вид битрейта : Постоянный
Битрейт : 192 Кбит/сек
Каналы : 2 канала
Расположение каналов : Front: L R
Частота : 48,0 КГц
Битовая глубина : 16 бит
Метод сжатия : С потерями
Размер потока : 29,7 Мбайт (8%)
Выравнивание : Соединение по промежуткам
Продолжительность промежутка : 40 мс. (1,00 видеокадр)
Время предзагрузки промежутка : 512 мс.
4 сезон (2004) / 01 Акула пера 2004.avi
Формат : AVI
Формат/Информация : Audio Video Interleave
Размер файла : 169 Мбайт
Продолжительность : 22 м.
Общий поток : 1055 Кбит/сек
Библиотека кодирования : VirtualDub build 24442/release

Видео
Идентификатор : 0
Формат : MPEG-4 Visual
Профиль формата : Advanced Simple@L5
Параметр BVOP формата : 2
Параметр QPel формата : Нет
Параметр GMC формата : Без точки перехода
Параметр матрицы формата : Default (H.263)
Идентификатор кодека : DIVX
Идентификатор кодека/Информация : Project Mayo
Идентификатор кодека/Подсказка : DivX 4
Продолжительность : 22 м.
Битрейт : 997 Кбит/сек
Ширина : 640 пикселей
Высота : 480 пикселей
Соотношение сторон : 4:3
Частота кадров : 25,000 кадров/сек
Цветовое пространство : YUV
Субдискретизация насыщенности : 4:2:0
Битовая глубина : 8 бит
Тип развёртки : Прогрессивная
Метод сжатия : С потерями
Бит/(Пиксели*Кадры) : 0.130
Размер потока : 160 Мбайт (95%)
Библиотека кодирования : XviD 1.1.0 Beta2 (UTC 2005-04-04)

Аудио
Идентификатор : 1
Формат : MPEG Audio
Версия формата : Version 1
Профиль формата : Layer 3
Идентификатор кодека : 55
Идентификатор кодека/Подсказка : MP3
Продолжительность : 22 м.
Вид битрейта : Постоянный
Битрейт : 48,0 Кбит/сек
Каналы : 1 канал
Частота : 32,0 КГц
Метод сжатия : С потерями
Размер потока : 7,71 Мбайт (5%)
Выравнивание : Разделение по промежуткам
Продолжительность промежутка : 40 мс. (1,00 видеокадр)
Время предзагрузки промежутка : 500 мс.

[Профиль]  [ЛС] 
Показать сообщения:    
Похожие темы
Форум Тема Автор Торрент Отв. Посл. сообщение
./templates/default/images/folder_dl.gif Разные российские сериалы 33 квадратных метра / Дачные истории / 1-41 серии из 41 (О.С.П. Студия) [1999-2004, сичком,... дмитри 0 | 0
15,3 GB

0 | 831

9

2015-05-12 16:24
дмитри latest
Ответить на тему

Текущее время: 21-Июл 05:20

Часовой пояс: GMT + 3



Вы не можете начинать темы
Вы не можете отвечать на сообщения
Вы не можете редактировать свои сообщения
Вы не можете удалять свои сообщения
Вы не можете голосовать в опросах
Вы не можете прикреплять файлы к сообщениям
Вы не можете скачивать файлы