Загрузка
Возникла ошибка загрузки данных
Регистрация ·
Имя: Пароль:
· Восстановление пароля
Качай с друзьями в разы быстрее в своей локальной сети. Подробности...

Обыкновенный фашизм [Михаил Ромм] (1965, документальный, военный, история) DVDRip

Ответить на тему
Активность по релизу
Скачали: [ 5 ]
 
   
 
 
Автор Сообщение

Ferz


Уровень: 39

Отд: 38,805 TB

На своих: 17,26 TB

Скачано: 4,28 TB

665514 уе

Стаж: 7 лет 8 месяцев

Сообщений: 1169

post 05-Ноя-2018 17:41

[Цитировать] 

pic
Страна: СССР
Производство: Мосфильм

Жанр: документальный, военный, история
Год выпуска: 1965
Продолжительность: 02:10:00 (01:07:58 + 01:02:02)

Перевод: Не требуется
Cубтитры: нет
Оригинальная аудиодорожка: русский

Режиссер: Михаил Ромм

В ролях:
Михаил Ромм, Марлен Дитрих, Дзюкити Уно...

Описание:
«Показывая вам нашу картину, мы, разумеется, не рассчитывали осветить все формы такого явления как фашизм. Это невозможно в пределах одной картины. Да это невозможно хотя бы потому, что многое, очень важное, не оставило никаких следов на пленке. Не было снято. Из огромного количества материала мы отобрали то, что показалось нам самым поразительным, что дает нам возможность вместе с вами поразмышлять…»
pic
picpic
Источник: DVD9 R5
Качество видео: DVDRip
Формат видео: AVI

Видео: 688x512 (4:3), 25 fps, XviD ~ 2206 kbps avg, 0.250 bit/pixel
Аудио: 48 kHz, Dolby Digital AC3 2.0, 192 kbps
MediaInfo
Общее
Полное имя : Obyknovennyy.fashizm.1965.DVDRip_[New-team]_by_AVP_StudioЧасть 1.avi
Формат : AVI
Формат/Информация : Audio Video Interleave
Размер файла : 1,14 Гбайт
Продолжительность : 1 ч. 7 м.
Общий поток : 2407 Кбит/сек
Программа кодирования : VirtualDubModRus 1.5.10.2 (build 2542/release)
Библиотека кодирования : VirtualDubMod build 2542/release

Видео
Идентификатор : 0
Формат : MPEG-4 Visual
Профиль формата : Advanced Simple@L5
Параметр BVOP формата : 1
Параметр QPel формата : Нет
Параметр GMC формата : Без точки перехода
Параметр матрицы формата : Выборочная
Идентификатор кодека : XVID
Идентификатор кодека/Подсказка : XviD
Продолжительность : 1 ч. 7 м.
Битрейт : 2206 Кбит/сек
Ширина : 688 пикселей
Высота : 512 пикселей
Соотношение сторон : 4:3
Частота кадров : 25,000 кадров/сек
Цветовое пространство : YUV
Субдискретизация насыщенности : 4:2:0
Битовая глубина : 8 бит
Тип развёртки : Прогрессивная
Метод сжатия : С потерями
Бит/(Пиксели*Кадры) : 0.250
Размер потока : 1,05 Гбайт (92%)
Библиотека кодирования : XviD 73

Аудио
Идентификатор : 1
Формат : AC-3
Формат/Информация : Audio Coding 3
Расширение режима : CM (complete main)
Параметр Endianness формата : Big
Идентификатор кодека : 2000
Продолжительность : 1 ч. 7 м.
Вид битрейта : Постоянный
Битрейт : 192 Кбит/сек
Каналы : 2 канала
Расположение каналов : Front: L R
Частота : 48,0 КГц
Битовая глубина : 16 бит
Метод сжатия : С потерями
Размер потока : 93,3 Мбайт (8%)
Выравнивание : Разделение по промежуткам
Продолжительность промежутка : 40 мс. (1,00 видеокадр)
Время предзагрузки промежутка : 500 мс
Скриншоты
pic pic pic pic

pic

[Профиль]  [ЛС] 
Показать сообщения:    
Похожие темы
Форум Тема Автор Торрент Отв. Посл. сообщение
./templates/default/images/folder_dl.gif Детские и семейные фильмы в хорошем и идеальном качестве Приключения Петрова и Васечкина ... / Каникулы Петрова и Васечкина, обыкновенные и невероятные... рич 0 | 0
4,35 GB

0 | 3660

13

2015-06-04 10:29
рич latest
./templates/default/images/folder_dl.gif Классика советского кино (фильмы вышедшие до 1990 года) Обыкновенное чудо (Марк Захаров) [1978 г., мюзикл, фэнтези, мелодрама, комедия, DVDRip-AVC] дмитри 0 | 0
2,84 GB

0 | 833

9

2015-05-28 16:07
дмитри latest
./templates/default/images/folder_dl.gif Зарубежные фильмы 2013-2015 Обыкновенное сердце / The Normal Heart (Райан Мерфи / Ryan Murphy) [2014, Драма, HDRip] MVO... Роман84 0 | 0
1,45 GB

0 | 167

21

2014-09-10 13:34
Роман84 latest
./templates/default/images/folder_dl.gif * Другое документальное, научно-познавательное кино Обыкновенный фашизм (Михаил Ромм) [1965 г., Документальный, военный, история, DVDRip] YaMan 0 | 0
0 B

0 | 1026

2011-01-29 22:47
YaMan latest
./templates/default/images/folder_dl.gif * Другое документальное, научно-познавательное кино Обыкновенный фашизм (Михаил Ромм) [1965 г., документальный, военный, история, DVDRip-AVC] McLaren 0 | 0
0 B

0 | 711

2013-02-25 13:19
McLaren latest
./templates/default/images/folder_dl.gif * Другие юмористические передачи и ролики Прощай, Глухарь!. Необыкновенный концерт [2011, Концерт, SATRip] SILVER37RUS 0 | 0
0 B

0 | 989

2011-10-28 20:56
SILVER37RUS latest
./templates/default/images/folder_dl.gif * Классика советского кино (фильмы вышедшие до 1990 года) Обыкновенное чудо (Марк Захаров) [1978 г., мюзикл, фэнтези, мелодрама, комедия, DVDRip] YaMan 0 | 0
0 B

1 | 1054

2011-03-03 01:16
bot latest
./templates/default/images/folder_dl.gif * Классика советского кино (фильмы вышедшие до 1990 года) Обыкновенное чудо (Марк Захаров) [1978, музыкальная сказка, мелодрама, DVDRip] "Крупный... РелизБот 0 | 0
0 B

0 | 821

2012-01-07 20:56
РелизБот latest
./templates/default/images/folder_dl.gif * Зарубежные фильмы 2013-2015 Обыкновенное сердце / The Normal Heart (Райан Мерфи / Ryan Murphy) [2014, США, Драма, HDTVRip] MVO Осенний Закат 0 | 0
0 B

2 | 308

2014-07-21 22:56
Jento latest
./templates/default/images/folder_dl.gif * Зарубежные фильмы 1991-2000 Обыкновенный преступник / Ordinary Decent Criminal (Тадеус О’Салливан / Thaddeus O'Sullivan)... Kodgim 0 | 0
0 B

0 | 859

2014-09-04 12:28
Kodgim latest
./templates/default/images/folder_dl.gif * Зарубежные фильмы 2016-2018 Обыкновенный мир / Ordinary World (Ли Кирк) [2016, драма, комедия, музыка, HDRip] MVO MCGame1988 0 | 0
0 B

0 | 156

2016-12-07 14:17
MCGame1988 latest
Ответить на тему

Текущее время: 13-Ноя 23:14

Часовой пояс: GMT + 3



Вы не можете начинать темы
Вы не можете отвечать на сообщения
Вы не можете редактировать свои сообщения
Вы не можете удалять свои сообщения
Вы не можете голосовать в опросах
Вы не можете прикреплять файлы к сообщениям
Вы не можете скачивать файлы