Загрузка
Возникла ошибка загрузки данных
Регистрация ·
Имя: Пароль:
· Восстановление пароля
Качай с друзьями в разы быстрее в своей локальной сети. Подробности...

[Symphonic-Rock, Alternative-Metal] Evanescence - Synthesis Live (2018) BDRip 1080p

Ответить на тему
Активность по релизу
Скачали: [ 3 ]
 
   
 
 
Автор Сообщение

mihis


Уровень: 120

Отд: 936,046 TB

На своих: 911,616 TB

Скачано: 42,651 TB

745945 уе

Стаж: 9 лет 1 месяц

Сообщений: 2847

post 19-Окт-2018 21:12

[Цитировать] 

Evanescence - Synthesis Live
pic

Название: Evanescence - Synthesis Live
Год издания: 2018
Жанр: Symphonic-Rock, Alternative-Metal
Страна исполнителя (группы): US
Издатель (лейбл): Eagle Rock Entertainment
Продолжительность: 01:23:19

О концерте: Лейбл Eagle Vision выпустил концертный альбом EVANESCENCE "Synthesis Live" 12 октября в форматах DVD+CD, Blu-ray+CD и в цифровом виде. Материал для релиза был записан в конце осени прошлого года в ходе тура "Synthesis", получившего массу теплых отзывов у критиков. Съемками в формате 4K руководил режиссер Пи-Ар Браун (P.R. Brown), а продюсером выступил Крейг Зиогас (Craig Ziogas) из компании CTGS Productions.

Песни релиза охватывают всю 20-летнюю историю EVANESCENCE, но теперь они звучат по-новому – с полным оркестром и многослойными электронными подложками. "Synthesis" – это душевное и захватывающе грандиозное представление. Сидящая за пианино Эми Ли (Amy Lee) открывает сет одной нотой, из которой выстраивается инструментальная "Overture", а за ней без каких-либо перерывов следует сокрушительная волна в виде "Never Go Back". "Bring Me To Life", с которой многие открыли для себя EVANESCENCE, выведена здесь на новый уровень мощи и эмоций с помощью грохочущего электронного сердцебиения и парящего оркестрового аккомпанемента, а такие песни, как "My Immortal", "Lithium" и "Lost In Paradise", кажутся разрывающими сердце сценами из какого-нибудь красивого фильма, не подверженного влиянию времени.

Невероятный вокальный диапазон Эми Ли и экспрессивная, многослойная музыка группы буквально напрашиваются на оркестровый аккомпанемент, и симфонические аранжировки, созданные усилиями композитора Дэвида Кэмпбелла (David Campbell) и дирижера Сьюзи Сейтер (Susie Seiter) обеспечили выступлению по-настоящему динамичный саунд, похожий на киномузыку. Соответственно реагирует и публика, и концерт становится по-настоящему уникальным шоу, вызывающим бурный отклик.

В последнее время EVANESCENCE объехали с программой "Synthesis" весь мир, успешно выступив в Европе, Северной Америке и Австралии. Этим летом группа объединилась со скрипачкой Линдси Стирлинг (Lindsey Stirling) для стадионного тура по Северной Америке, который вошел в верхнюю десятку летних гастролей промоутерской компании Live Nation.

Лицензия
Официальный сайт

Качество: BDRip 1080p
Формат: Matroska
Видео: MPEG-4 AVC, 8770 Кбит/с, 1920x872
Аудио#1: English: 48 kHz, DTS, 3/2 (L,C,R,l,r) + LFE ch, ~1509 kbps avg
Аудио#2: English: 48 kHz, FLAC, 2/0 (L,R) ch, ~987 kbps avg
Субтитры: None
Треклист
01. Overture
02. Never Go Back
03. Lacrymosa
04. The End Of The Dream
05. My Heart Is Broken
06. Lithium
07. Bring Me To Life
08. Unravelling (Interlude)
09. Imaginary
10. Secret Door
11. Hi-Lo
12. Lost In Paradise
13. Your Star
14. My Immortal
15. The In-Between (Piano Solo)
16. Imperfection
17. Speak To Me
18. Good Enough
19. Swimming Home
MediaInfo
General
Unique ID : 94289437772116777064451847479623264019 (0x46EF7C33BD34240677B145BFE439A713)
Complete name : F:Evanescence - Synthesis Live 2017.mkv
Format : Matroska
Format version : Version 4
File size : 6.56 GiB
Duration : 1 h 23 min
Overall bit rate mode : Variable
Overall bit rate : 11.3 Mb/s
Encoded date : UTC 2018-10-12 16:30:01
Writing application : mkvmerge v27.0.0 ('Metropolis') 64-bit
Writing library : libebml v1.3.6 + libmatroska v1.4.9
Video
ID : 1
Format : AVC
Format/Info : Advanced Video Codec
Format profile : High@L4.1
Format settings : CABAC / 4 Ref Frames
Format settings, CABAC : Yes
Format settings, ReFrames : 4 frames
Codec ID : V_MPEG4/ISO/AVC
Duration : 1 h 23 min
Bit rate : 8 770 kb/s
Width : 1 920 pixels
Height : 872 pixels
Display aspect ratio : 2.2:1
Frame rate mode : Constant
Frame rate : 23.976 (24000/1001) FPS
Color space : YUV
Chroma subsampling : 4:2:0
Bit depth : 8 bits
Scan type : Progressive
Bits/(Pixel*Frame) : 0.218
Stream size : 5.10 GiB (78%)
Title : English
Writing library : x264 core 157 r2935 545de2f
Encoding settings : cabac=1 / ref=4 / deblock=1:0:0 / analyse=0x3:0x113 / me=umh / subme=8 / psy=1 / psy_rd=1.00:0.00 / mixed_ref=1 / me_range=16 / chroma_me=1 / trellis=1 / 8x8dct=1 / cqm=0 / deadzone=21,11 / fast_pskip=1 / chroma_qp_offset=-2 / threads=12 / lookahead_threads=2 / sliced_threads=0 / nr=0 / decimate=1 / interlaced=0 / bluray_compat=0 / constrained_intra=0 / bframes=3 / b_pyramid=2 / b_adapt=1 / b_bias=0 / direct=3 / weightb=1 / open_gop=0 / weightp=2 / keyint=240 / keyint_min=24 / scenecut=40 / intra_refresh=0 / rc_lookahead=50 / rc=2pass / mbtree=1 / bitrate=8770 / ratetol=1.0 / qcomp=0.60 / qpmin=0 / qpmax=69 / qpstep=4 / cplxblur=20.0 / qblur=0.5 / ip_ratio=1.40 / aq=1:1.00
Language : English
Default : Yes
Forced : No
Audio #1
ID : 2
Format : DTS
Format/Info : Digital Theater Systems
Codec ID : A_DTS
Duration : 1 h 23 min
Bit rate mode : Constant
Bit rate : 1 509 kb/s
Channel(s) : 6 channels
Channel layout : C L R Ls Rs LFE
Sampling rate : 48.0 kHz
Frame rate : 93.750 FPS (512 SPF)
Bit depth : 16 bits
Compression mode : Lossy
Stream size : 899 MiB (13%)
Title : English
Language : English
Default : Yes
Forced : No
Audio #2
ID : 3
Format : FLAC
Format/Info : Free Lossless Audio Codec
Codec ID : A_FLAC
Duration : 1 h 23 min
Bit rate mode : Variable
Bit rate : 987 kb/s
Channel(s) : 2 channels
Channel layout : L R
Sampling rate : 48.0 kHz
Frame rate : 11.719 FPS (4096 SPF)
Bit depth : 16 bits
Compression mode : Lossless
Stream size : 588 MiB (9%)
Title : English
Writing library : libFLAC 1.2.1 (UTC 2007-09-17)
Language : English
Default : No
Forced : No
Menu
00:00:00.000 : :00:00:00.000
00:01:28.088 : :00:01:28.088
00:06:33.393 : :00:06:33.393
00:10:01.601 : :00:10:01.601
00:15:17.542 : :00:15:17.542
00:20:08.499 : :00:20:08.499
00:24:23.587 : :00:24:23.587
00:28:40.719 : :00:28:40.719
00:30:20.068 : :00:30:20.068
00:34:37.075 : :00:34:37.075
00:38:53.331 : :00:38:53.331
00:43:57.385 : :00:43:57.385
00:48:40.918 : :00:48:40.918
00:53:47.433 : :00:53:47.433
00:58:28.505 : :00:58:28.505
01:00:23.620 : :01:00:23.620
01:05:16.579 : :01:05:16.579
01:11:49.305 : :01:11:49.305
01:17:27.768 : :01:17:27.768
скрытый текст
picpic
picpicpic

[Профиль]  [ЛС] 
Показать сообщения:    
Ответить на тему

Текущее время: 17-Ноя 04:03

Часовой пояс: GMT + 3



Вы не можете начинать темы
Вы не можете отвечать на сообщения
Вы не можете редактировать свои сообщения
Вы не можете удалять свои сообщения
Вы не можете голосовать в опросах
Вы не можете прикреплять файлы к сообщениям
Вы не можете скачивать файлы