Загрузка
Возникла ошибка загрузки данных
Регистрация ·
Имя: Пароль:
· Восстановление пароля
Качай с друзьями в разы быстрее в своей локальной сети. Подробности...

Земля: Один потрясающий день / Earth: One Amazing Day [Ричард Дэйл, Фань Лисинь, Питер Веббер] (2017, Документальный, семейный) [BDRip 1080p] | iTunes

Ответить на тему
Активность по релизу
Скачали: [ 5 ]
 
   
 
 
Автор Сообщение

Ferz


Уровень: 39

Отд: 38,723 TB

На своих: 17,213 TB

Скачано: 4,241 TB

420488 уе

Стаж: 7 лет 7 месяцев

Сообщений: 1151

post 09-Июл-2018 03:20

[Цитировать] 

pic
Земля: Один потрясающий день / Earth: One Amazing Day

Год выхода: 2017
Жанр: Документальный, семейный
Страна: Великобритания
Перевод: Одноголосый дублированный | iTunes
Продолжительность: 01:33:46
Режиссеры: Ричард Дэйл, Фань Лисинь, Питер Веббер
В ролях: Роберт Редфорд, Джеки Чан
Роли дублировали: Николай Дроздов

О фильме: Солнце восходит над Землей, и множество живых существ начинают свой день, полный трогательных, увлекательных и опасных событий. Игуаны спасаются бегством от ядовитых змей, очаровательные панды лакомятся побегами бамбука, жирафы сражаются за сердце «прекрасной дамы»… Жизнь в африканской саванне, на безлюдных островах в Тихом океане, в лесах Азии и на морском дне разворачивается по законам остросюжетного боевика, сентиментальной мелодрамы или головокружительного триллера. Никогда прежде чудеса не были так близко.

pic

Качество: BDRip 1080p
Видео: MPEG-4 AVC, 1920x1080, 11500 kbps, 23,976 fps
Звук#1: русский, AC3, 6 ch, 48 kHz, 384 kbps
Звук#2: английский, AC3, 6 ch, 48 kHz, 640 kbps
Субтитры: русские, английские
MI
Общее
Уникальный идентификатор : 229659798526637460910573011238052084460 (0xACC6DE48F004E5C9AFFD1D883A5EBAEC)
Полное имя : E:UttorentEarthOneAmazingDayBDRip1080.mkv
Формат : Matroska
Версия формата : Version 4 / Version 2
Размер файла : 8,20 Гбайт
Продолжительность : 1 ч. 33 м.
Общий поток : 12,5 Мбит/сек
Название фильма : Earth.One.Amazing.Day.2017.720p.BluRay.x264.DD5.1-HDC
Дата кодирования : UTC 2018-04-17 16:54:04
Программа кодирования : mkvmerge v9.5.0 ('Quiet Fire') 64bit
Библиотека кодирования : libebml v1.3.4 + libmatroska v1.4.5
Обложка : Yes
Attachments : small_cover.jpg / small_cover_land.jpg / cover.jpg / cover_land.jpg

Видео
Идентификатор : 1
Формат : AVC
Формат/Информация : Advanced Video Codec
Профиль формата : High@L4.1
Настройки формата : CABAC / 5 Ref Frames
Параметр CABAC формата : Да
Параметр RefFrames формата : 5 кадров
Идентификатор кодека : V_MPEG4/ISO/AVC
Продолжительность : 1 ч. 33 м.
Битрейт : 11,5 Мбит/сек
Ширина : 1920 пикселей
Высота : 1080 пикселей
Соотношение сторон : 16:9
Режим частоты кадров : Постоянный
Частота кадров : 23,976 (24000/1001) кадра/сек
Цветовое пространство : YUV
Субдискретизация насыщенности : 4:2:0
Битовая глубина : 8 бит
Тип развёртки : Прогрессивная
Бит/(Пиксели*Кадры) : 0.231
Размер потока : 7,53 Гбайт (92%)
Библиотека кодирования : x264 core 142 r2479 dd79a61
Настройки программы : cabac=1 / ref=5 / deblock=1:-3:-3 / analyse=0x3:0x133 / me=umh / subme=11 / psy=1 / psy_rd=1.00:0.00 / mixed_ref=1 / me_range=32 / chroma_me=1 / trellis=2 / 8x8dct=1 / cqm=0 / deadzone=21,11 / fast_pskip=1 / chroma_qp_offset=-2 / threads=12 / lookahead_threads=3 / sliced_threads=0 / nr=0 / decimate=1 / interlaced=0 / bluray_compat=0 / constrained_intra=0 / bframes=10 / b_pyramid=2 / b_adapt=2 / b_bias=0 / direct=3 / weightb=1 / open_gop=0 / weightp=0 / keyint=240 / keyint_min=24 / scenecut=40 / intra_refresh=0 / rc_lookahead=40 / rc=2pass / mbtree=1 / bitrate=11500 / ratetol=1.0 / qcomp=0.60 / qpmin=0 / qpmax=69 / qpstep=4 / cplxblur=20.0 / qblur=0.5 / vbv_maxrate=62500 / vbv_bufsize=78125 / nal_hrd=none / filler=0 / ip_ratio=1.40 / aq=1:1.00
Default : Да
Forced : Нет
Цветовой диапазон : Limited
Основные цвета : BT.709
Характеристики трансфера : BT.709
Коэффициенты матрицы : BT.709

Аудио #1
Идентификатор : 2
Формат : AC-3
Формат/Информация : Audio Coding 3
Идентификатор кодека : A_AC3
Продолжительность : 1 ч. 33 м.
Вид битрейта : Постоянный
Битрейт : 384 Кбит/сек
Каналы : 6 каналов
Расположение каналов : Front: L C R, Side: L R, LFE
Частота : 48,0 КГц
Частота кадров : 31,250 кадров/сек (1536 SPF)
Битовая глубина : 16 бит
Метод сжатия : С потерями
Размер потока : 258 Мбайт (3%)
Язык : Russian
Default : Да
Forced : Нет

Аудио #2
Идентификатор : 3
Формат : AC-3
Формат/Информация : Audio Coding 3
Идентификатор кодека : A_AC3
Продолжительность : 1 ч. 33 м.
Вид битрейта : Постоянный
Битрейт : 640 Кбит/сек
Каналы : 6 каналов
Расположение каналов : Front: L C R, Side: L R, LFE
Частота : 48,0 КГц
Частота кадров : 31,250 кадров/сек (1536 SPF)
Битовая глубина : 16 бит
Метод сжатия : С потерями
Размер потока : 429 Мбайт (5%)
Язык : English
Default : Нет
Forced : Нет

Текст #1
Идентификатор : 4
Формат : UTF-8
Идентификатор кодека : S_TEXT/UTF8
Идентификатор кодека/Информация : UTF-8 Plain Text
Продолжительность : 1 ч. 26 м.
Битрейт : 59 бит/сек
ElementCount : 452
Размер потока : 37,8 Кбайт (0%)
Язык : Russian
Default : Да
Forced : Да

Текст #2
Идентификатор : 5
Формат : UTF-8
Идентификатор кодека : S_TEXT/UTF8
Идентификатор кодека/Информация : UTF-8 Plain Text
Продолжительность : 1 ч. 26 м.
Битрейт : 35 бит/сек
ElementCount : 452
Размер потока : 22,5 Кбайт (0%)
Язык : English
Default : Нет
Forced : Нет
Земля: Один потрясающий день - один из интереснейших фильмов от BBC.
Скриншоты
pic pic pic pic
pic pic pic pic

pic

[Профиль]  [ЛС] 
Показать сообщения:    
Ответить на тему

Текущее время: 19-Окт 09:44

Часовой пояс: GMT + 3



Вы не можете начинать темы
Вы не можете отвечать на сообщения
Вы не можете редактировать свои сообщения
Вы не можете удалять свои сообщения
Вы не можете голосовать в опросах
Вы не можете прикреплять файлы к сообщениям
Вы не можете скачивать файлы