Загрузка
Возникла ошибка загрузки данных
Регистрация ·
Имя: Пароль:
· Восстановление пароля
Качай с друзьями в разы быстрее в своей локальной сети. Подробности...

Школа воров. Часть вторая / Scuola di Ladri. Parte Seconda (Нери Паренти / Neri Parenti) [1987, Италия, Комедия, DVDRip] P|MVOx2

Ответить на тему
Активность по релизу
Нет
 
   
 
 
Автор Сообщение

рич


Уровень: 0

Отд: 5,115 TB

На своих: 3,839 TB

Скачано: 357,86 GB

353850 уе

Стаж: 2 года 3 месяца

Сообщений: 1113

post 13-Июн-2015 19:37

[Цитировать] 

pic
Школа воров. Часть вторая / Scuola di Ladri. Parte Seconda

Страна: Италия
Жанр: Комедия
Год выпуска: 1987
Продолжительность: 01:31:35
Перевод 1: Профессиональный (многоголосый закадровый) СТС / Позитив
Перевод 2: Профессиональный (многоголосый закадровый) НТВ
Cубтитры: нет
Оригинальная аудиодорожка: итальянский

Режиссер: Нери Паренти / Neri Parenti
В ролях: Паоло Вилладжо, Массимо Болди, Энрико Мария Салерно, Флоренс Герин, Джон Ричардсон, Дэниэл Ламберт, Романо Пуппо, Стефано Антонуччи, Клаудио Болди

Описание: Оставленные в дураках мнимым дядюшкой, обучившим бедолаг воровскому ремеслу, ребята снова берутся за старое, но каждый орудует самостоятельно. Однако судьба сводит их вместе снова и снова. Они постоянно встречаются в местах своих преступлений. Понимая, что действовать по одиночке они не могут, ведь их учили как команду в школе воров, ребята вновь объединяются. Но и вместе у них ничего не выходило, пока их опять не прибрал к рукам появившийся неизвестно откуда слепой дядюшка. И, наконец, самое главное - наши отыгрываются и побеждают самым хитрым образом!

pic

Качество видео: DVDRip
Формат видео: AVI
Видео: MPEG4, XviD, 688x416 (1.654), 25.000 fps, 1 746 Kbps (0.244 bit/pixel)
Аудио 1: AC-3, 48.0 KHz, 2 ch, 192 Kbps, CBR - СТС
Аудио 2: AC-3, 48.0 KHz, 2 ch, 128 Kbps, CBR - НТВ
Аудио 3: AC-3, 48.0 KHz, 2 ch, 192 Kbps, CBR - итальянский
MediaInfo
Общее
Полное имя : K:Школа воров. Часть вторая.avi
Формат : AVI
Формат/Информация : Audio Video Interleave
Размер файла : 1,46 Гбайт
Продолжительность : 1 ч. 31 м.
Общий поток : 2278 Кбит/сек
Название фильма : Школа воров. Часть вторая / Scuola di Ladri. Parte Seconda (1987)
Режиссёр : miha2154
Программа кодирования : VirtualDubMod 1.5.10.2 (build 2540/release)
Библиотека кодирования : VirtualDubMod build 2540/release
Правообладатель : специально для BitTorrent трекер RuTracker.org (ex torrents.ru)
Видео
Идентификатор : 0
Формат : MPEG-4 Visual
Профиль формата : Advanced Simple@L5
Параметр BVOP формата : 2
Параметр QPel формата : Нет
Параметр GMC формата : Без точки перехода
Параметр матрицы формата : Default (MPEG)
Идентификатор кодека : XVID
Идентификатор кодека/Подсказка : XviD
Продолжительность : 1 ч. 31 м.
Битрейт : 1746 Кбит/сек
Ширина : 688 пикселей
Высота : 416 пикселей
Соотношение сторон : 1,654
Частота кадров : 25,000 кадров/сек
Цветовое пространство : YUV
Субдискретизация насыщенности : 4:2:0
Битовая глубина : 8 бит
Тип развёртки : Прогрессивная
Метод сжатия : С потерями
Бит/(Пиксели*Кадры) : 0.244
Размер потока : 1,12 Гбайт (77%)
Библиотека кодирования : XviD 1.1.0 (UTC 2005-11-22)
Аудио #1
Идентификатор : 1
Формат : AC-3
Формат/Информация : Audio Coding 3
Расширение режима : CM (complete main)
Параметр Endianness формата : Big
Идентификатор кодека : 2000
Продолжительность : 1 ч. 31 м.
Вид битрейта : Постоянный
Битрейт : 192 Кбит/сек
Каналы : 2 канала
Расположение каналов : Front: L R
Частота : 48,0 КГц
Битовая глубина : 16 бит
Метод сжатия : С потерями
Размер потока : 126 Мбайт (8%)
Выравнивание : Разделение по промежуткам
Продолжительность промежутка : 40 мс. (1,00 видеокадр)
Время предзагрузки промежутка : 500 мс.
Заголовок : Профессиональный (многоголосый закадровый) СТС
Аудио #2
Идентификатор : 2
Формат : AC-3
Формат/Информация : Audio Coding 3
Расширение режима : CM (complete main)
Параметр Endianness формата : Big
Идентификатор кодека : 2000
Продолжительность : 1 ч. 31 м.
Вид битрейта : Постоянный
Битрейт : 128 Кбит/сек
Каналы : 2 канала
Расположение каналов : Front: L R
Частота : 48,0 КГц
Битовая глубина : 16 бит
Метод сжатия : С потерями
Размер потока : 83,8 Мбайт (6%)
Выравнивание : Разделение по промежуткам
Продолжительность промежутка : 40 мс. (1,00 видеокадр)
Время предзагрузки промежутка : 500 мс.
Заголовок : Профессиональный (многоголосый закадровый)
Аудио #3
Идентификатор : 3
Формат : AC-3
Формат/Информация : Audio Coding 3
Расширение режима : CM (complete main)
Параметр Endianness формата : Big
Идентификатор кодека : 2000
Продолжительность : 1 ч. 31 м.
Вид битрейта : Постоянный
Битрейт : 192 Кбит/сек
Каналы : 2 канала
Расположение каналов : Front: L R
Частота : 48,0 КГц
Битовая глубина : 16 бит
Метод сжатия : С потерями
Размер потока : 126 Мбайт (8%)
Выравнивание : Разделение по промежуткам
Продолжительность промежутка : 40 мс. (1,00 видеокадр)
Время предзагрузки промежутка : 500 мс.
Заголовок : Итальянский
Скриншоты
pic pic pic pic
pic pic pic pic

pic

[Профиль]  [ЛС] 
Показать сообщения:    
Похожие темы
Форум Тема Автор Торрент Отв. Посл. сообщение
./templates/default/images/folder_dl.gif Зарубежные фильмы 1981-1990 Школа воров / Scuola Di Ladri (Нери Паренти / Neri Parenti) [1986, Италия, комедия, DVDRip] P|MVO... рич 0 | 0
1,48 GB

1 | 675

7

2015-06-13 19:48
дмитри latest
Ответить на тему

Текущее время: 30-Апр 08:11

Часовой пояс: GMT + 3



Вы не можете начинать темы
Вы не можете отвечать на сообщения
Вы не можете редактировать свои сообщения
Вы не можете удалять свои сообщения
Вы не можете голосовать в опросах
Вы не можете прикреплять файлы к сообщениям
Вы не можете скачивать файлы