Загрузка
Возникла ошибка загрузки данных
Регистрация ·
Имя: Пароль:
· Восстановление пароля
Качай с друзьями в разы быстрее в своей локальной сети. Подробности...

Фар Край / Far Cry (Уве Болл / Uwe Boll) [1080p] [2008 г., боевик, приключения, BDRemux]

Ответить на тему
Активность по релизу
Нет
 
   
 
 
Автор Сообщение

PashaCelebrity


Уровень: 0

Отд: 3,444 TB

На своих: 458,58 GB

Скачано: 6,115 TB

564358 уе

Стаж: 7 лет 8 месяцев

Сообщений: 260

post 13-Фев-2014 21:17

[Цитировать] 

Фар Край / Far Cry
pic
Год выпуска: 2008
Страна: Германия, Канада
Жанр: боевик, приключения
Продолжительность: 1:34:41
Перевод: Профессиональный (многоголосый, закадровый) 2 варианта
Перевод: Двухголосый, закадровый
Cубтитры: русские, английские
Режиссер: Уве Болл / Uwe Boll
В ролях: Тиль Швайгер, Эммануэль Вожье, Натали Авелон, Удо Кир, Крис Коппола, Ральф Мёллер, Крэйг Фэйрбрасс, Майкл Паре, Дон С. Дэвис, Сюзанн Ристич, Джей Бразо, Майк Допуд, Стеффен Меннекс, Майкл Робинсон, Кэрри Гензел, Майкл Роджерс, Джофф Густафссон, Джэми Свитч, James Michalopolous, Скотт Купер, Аарон Перл, Риз Александр, Адриан Холмс, Ричард Фараси, Майкл Тиган, Майкл Беняер, Питер Кент, Д. Хэрлан Катшелл, Мишель Кук, Тайрон Лейтсо, Энтони Бурден, Томас Хэнли, Kirk McMeekan, Craig Skistimas, Гарет Фон Калленбах
Описание: Джек Карвер оказывается на тропическом острове после того, как его катер потерпел крушение во время шторма. На небольшом кусочке суши много секретных объектов, которые используются коварным профессором для выведения супер-мутантов. Главному герою придется столкнуться лицом к лицу со смертью и избавиться от головорезов злобного ученого, которые очень хотят вырваться на свободу.
Доп. информация: РЕЛИЗ ГРУППЫ pic
Качество: BDRemux
Формат: MKV
Видео: VC-1 Video 16017 kbps 1080p / 23,976 fps / 16:9 / Advanced Profile 3
Аудио: Dolby Digital Audio Russian 5.1 / 48 kHz / 448 kbps [R5]
Аудио: Dolby Digital Audio Russian 5.1 / 48 kHz / 384 kbps
Аудио: Dolby Digital Audio Russian 2.0 / 48 kHz / 192 kbps [РенТВ]
Аудио: DTS-HD Master Audio English 5.1 / 48 kHz / 3018 kbps / 16-bit (DTS Core: 5.1 / 48 kHz / 1509 kbps / 16-bit)
примечание
вторая зуковая дорожка взята с исходника, рассинхрон в 200мс, начиная с 63 минуты исправлен. Так как спектр был 17кгц, понизил битрейт. РенТВ из моего архива
MI
General
UniqueID : 245166486742277499081590411803509945136 (0xB871590A94F6D70FB83C731A48EC7330)
Complete name : J:Far.Cry.2008.1080p.Bluray.VC1.Remux.mkv
Format : Matroska
File size : 13.3 GiB
Duration : 1h 34mn
Overall bit rate : 20.1 Mbps
Movie name : Far.Cry.2008.1080p.Bluray.VC1.Remux
Encoded date : UTC 2011-03-15 14:46:35
Writing application : mkvmerge v3.2.0 ('Beginnings') built on Feb 12 2010 16:46:17
Writing library : libebml v0.7.9 + libmatroska v0.8.1
Video
ID : 1
Format : VC-1
Format profile : AP@L3
Codec ID : WVC1
Codec ID/Hint : Microsoft
Duration : 1h 34mn
Bit rate : 15.6 Mbps
Width : 1 920 pixels
Height : 1 080 pixels
Display aspect ratio : 16:9
Frame rate : 23.976 fps
Chroma subsampling : 4:2:0
Bit depth : 8 bits
Scan type : Progressive
Compression mode : Lossy
Bits/(Pixel*Frame) : 0.314
Stream size : 10.3 GiB (78%)
Title : uralmix
Audio #1
ID : 2
Format : AC-3
Format/Info : Audio Coding 3
Mode extension : CM (complete main)
Codec ID : A_AC3
Duration : 1h 34mn
Bit rate mode : Constant
Bit rate : 448 Kbps
Channel(s) : 6 channels
Channel positions : Front: L C R, Side: L R, LFE
Sampling rate : 48.0 KHz
Bit depth : 16 bits
Compression mode : Lossy
Stream size : 303 MiB (2%)
Title : R5
Language : Russian
Audio #2
ID : 3
Format : AC-3
Format/Info : Audio Coding 3
Mode extension : CM (complete main)
Codec ID : A_AC3
Duration : 1h 34mn
Bit rate mode : Constant
Bit rate : 384 Kbps
Channel(s) : 6 channels
Channel positions : Front: L C R, Side: L R, LFE
Sampling rate : 48.0 KHz
Bit depth : 16 bits
Compression mode : Lossy
Stream size : 260 MiB (2%)
Title : двухголосый
Language : Russian
Audio #3
ID : 4
Format : AC-3
Format/Info : Audio Coding 3
Mode extension : CM (complete main)
Codec ID : A_AC3
Duration : 1h 34mn
Bit rate mode : Constant
Bit rate : 192 Kbps
Channel(s) : 2 channels
Channel positions : Front: L R
Sampling rate : 48.0 KHz
Bit depth : 16 bits
Compression mode : Lossy
Stream size : 130 MiB (1%)
Title : РенТВ
Language : Russian
Audio #4
ID : 5
Format : DTS
Format/Info : Digital Theater Systems
Format profile : HRA
Codec ID : A_DTS
Duration : 1h 34mn
Bit rate mode : Constant
Bit rate : 3 019 Kbps
Channel(s) : 6 channels
Channel positions : Front: L C R, Side: L R, LFE
Sampling rate : 48.0 KHz
Bit depth : 16 bits
Compression mode : Lossy
Stream size : 2.00 GiB (15%)
Language : English
Text #1
ID : 6
Format : UTF-8
Codec ID : S_TEXT/UTF8
Codec ID/Info : UTF-8 Plain Text
Language : Russian
Text #2
ID : 7
Format : UTF-8
Codec ID : S_TEXT/UTF8
Codec ID/Info : UTF-8 Plain Text
Language : English
Скриншоты
picpicpicpic

pic

[Профиль]  [ЛС] 

Xamer


Уровень: 4

Отд: 42,599 TB

На своих: 17,952 TB

Скачано: 13,473 TB

669321 уе

Стаж: 10 лет

Сообщений: 8166

post 13-Фев-2014 21:34 (спустя 16 минут)

[Цитировать] 

Как все-таки летит время...
[Профиль]  [ЛС] 
Показать сообщения:    
Похожие темы
Форум Тема Автор Торрент Отв. Посл. сообщение
./templates/default/images/folder_dl.gif Зарубежные фильмы 2006-2009 Фар Край / Far Cry (Уве Болл / Uwe Boll) [2008 г., фантастика, боевик, приключения, BDRip] MVO (R5) palych74 0 | 0
1,45 GB

1 | 1281

88

2012-03-16 22:05
gonzalis latest
Ответить на тему

Текущее время: 19-Окт 09:44

Часовой пояс: GMT + 3



Вы не можете начинать темы
Вы не можете отвечать на сообщения
Вы не можете редактировать свои сообщения
Вы не можете удалять свои сообщения
Вы не можете голосовать в опросах
Вы не можете прикреплять файлы к сообщениям
Вы не можете скачивать файлы