Загрузка
Возникла ошибка загрузки данных
Регистрация ·
Имя: Пароль:
· Восстановление пароля
Качай с друзьями в разы быстрее в своей локальной сети. Подробности...

National Geographic: Секреты Шамбалы. В поисках священных пещер / National Geographic: Secrets of Shangri-La. Quest for Sacred Caves (Лисл Кларк / Lisl Klark) [2009, Документальный, HDTVRip 1080p]

Ответить на тему
Активность по релизу
Нет
 
   
 
 
Автор Сообщение

фёдор321


Уровень: 2

Отд: 13,803 TB

На своих: 6,947 TB

Скачано: 2,075 TB

365186 уе

Стаж: 7 лет 10 месяцев

Сообщений: 276

post 23-Июн-2013 07:57

[Цитировать] 

National Geographic: Секреты Шамбалы. В поисках священных пещер / National Geographic: Secrets of Shangri-La. Quest for Sacred Caves
pic
Год выпуска: 2009
Страна: США, Франция
Студия: National Geographic Television, Sky Door Films, France 5
Жанр: Документальный
Продолжительность: 00:51:58
Перевод: Студийный (одноголосый закадровый)
Доп. инфо о переводе: Первый ТВЧ
Русские субтитры: нет
Режиссер: Лисл Кларк / Lisl Klark
Описание: Высоко в Гималаях, в самом высокогорном королевстве мира, исследователи нашли тысячи таинственных пещер. Темные проходы манят взглянуть на давно затерянный мир. Команда альпинистов и ученых впервые спустятся в них. Внутри они найдут не большие города, высеченные из камня, и увидят поразительные сокровища. Находки разожгли древнюю вражду между двумя религиями и посеяли страх, что мародеры могут добраться до сокровищ. Ученые приехали изучать пещеры, но теперь им пришлось их спасать, пока не явились грабители. Или, что ещё хуже, пока пещеры не обрушились. Содержимое этих пещер ошеломляет. Считается, что эти древние места когда-то были священной долиной, земным раем, который назывался Шамбала.
Доп. информация: Релиз AlexAndr92
Сэмпл: http://multi-up.com/872134
Тип релиза: HDTVRip 1080p
Контейнер: MKV
Видео: MPEG-4 AVC, 9120 Кбит/с, 1920x1072, 25 кадр/с
Аудио: Русский, AC3, 2 ch, 48,0 КГц, 384 Кбит/с
MediaInfo
Формат : Matroska
Версия формата : Version 2
Размер файла : 3,45 Гбайт
Продолжительность : 51 м.
Общий поток : 9506 Кбит/сек
Дата кодирования : UTC 2013-06-03 12:18:32
Программа кодирования : mkvmerge v5.8.0 ('No Sleep / Pillow') built on Sep 2 2012 15:37:04
Библиотека кодирования : libebml v1.2.3 + libmatroska v1.3.0
Видео
Идентификатор : 1
Формат : AVC
Формат/Информация : Advanced Video Codec
Профиль формата : High@L4.0
Параметр CABAC формата : Да
Параметр ReFrames формата : 4 кадра
Идентификатор кодека : V_MPEG4/ISO/AVC
Продолжительность : 51 м.
Битрейт : 9120 Кбит/сек
Ширина : 1920 пикселей
Высота : 1072 пикселя
Соотношение сторон : 16:9
Режим частоты кадров : Постоянный
Частота кадров : 25,000 кадров/сек
Цветовое пространство : YUV
Субдискретизация насыщенности : 4:2:0
Битовая глубина : 8 бит
Тип развёртки : Прогрессивная
Бит/(Пиксели*Кадры) : 0.177
Размер потока : 3,24 Гбайт (94%)
Библиотека кодирования : x264 core 125 r2208 d9d2288
Настройки программы : cabac=1 / ref=4 / deblock=1:-3:-3 / analyse=0x3:0x133 / me=umh / subme=10 / psy=1 / psy_rd=1.00:0.15 / mixed_ref=1 / me_range=32 / chroma_me=1 / trellis=2 / 8x8dct=1 / cqm=0 / deadzone=21,11 / fast_pskip=0 / chroma_qp_offset=-3 / threads=6 / lookahead_threads=1 / sliced_threads=0 / nr=0 / decimate=1 / interlaced=0 / bluray_compat=0 / constrained_intra=0 / bframes=3 / b_pyramid=2 / b_adapt=2 / b_bias=0 / direct=3 / weightb=1 / open_gop=0 / weightp=2 / keyint=250 / keyint_min=25 / scenecut=40 / intra_refresh=0 / rc_lookahead=50 / rc=2pass / mbtree=1 / bitrate=9120 / ratetol=1.0 / qcomp=0.60 / qpmin=10 / qpmax=51 / qpstep=4 / cplxblur=20.0 / qblur=0.5 / ip_ratio=1.40 / aq=1:1.00
Default : Да
Forced : Нет
Аудио
Идентификатор : 2
Формат : AC-3
Формат/Информация : Audio Coding 3
Расширение режима : CM (complete main)
Параметр Endianness формата : Big
Идентификатор кодека : A_AC3
Продолжительность : 51 м.
Вид битрейта : Постоянный
Битрейт : 384 Кбит/сек
Каналы : 2 канала
Расположение каналов : Front: L R
Частота : 48,0 КГц
Битовая глубина : 16 бит
Метод сжатия : С потерями
Размер потока : 143 Мбайт (4%)
Default : Да
Forced : Нет
Скриншоты
pic pic
pic pic

pic

[Профиль]  [ЛС] 
Показать сообщения:    
Похожие темы
Форум Тема Автор Торрент Отв. Посл. сообщение
./templates/default/images/folder_dl.gif National Geographic National Geographic. Морган Фримен. Истории о Боге / The Story of God [01-06 из 06] [Тим Метзгер]... Ferz 0 | 0
4,2 GB

3 | 1361

11

2016-08-19 13:52
Morde latest
./templates/default/images/folder_dl.gif National Geographic Супертрава - марихуана / National Geographic: Inside Marijuana (Роберт Закин) [2009, Научно -... MCGame1988 0 | 0
700 MB

0 | 1394

49

2012-06-02 13:13
MCGame1988 latest
./templates/default/images/folder_dl.gif National Geographic Внутри Млечного Пути / Inside The Milky Way (Дункан Копп / Duncan Copp) [2010 г., Документальный,... tehmin 0 | 0
2,31 GB

2 | 1786

99

2011-08-05 13:28
tehmin latest
./templates/default/images/folder_dl.gif National Geographic Cамые невероятные мгновения (выпуск 1-3) / National Geographic / Most dengerous moments / Most... фёдор321 0 | 0
1,43 GB

1 | 1676

70

2011-04-13 11:24
bot latest
./templates/default/images/folder_dl.gif * Документальные научно-познавательные Суперсооружения: Аэропорт Канзай / Megastructures: Kansai International Airport (National... vvs002 0 | 0
0 B

1 | 1086

2011-05-04 13:23
bot latest
./templates/default/images/folder_dl.gif * National Geographic National Geograph: Таинственный космос. Инопланетное сафари / National Geographic: Space... фёдор321 0 | 0
0 B

1 | 1592

2012-05-01 09:36
bot latest
./templates/default/images/folder_dl.gif * Другое документальное, научно-познавательное кино Каннибалы каменного века / Cannibals of the Stone Age [National Geographic, 2010 г.,... дмитри 0 | 0
0 B

0 | 609

2013-04-14 14:33
дмитри latest
./templates/default/images/folder_dl.gif * National Geographic Зона 51: Рассекречено (Взгляд изнути: Секреты зоны 51) / Area 51 Declassified (Петер Йост / Peter... фёдор321 0 | 0
0 B

1 | 1407

2012-06-02 10:21
PIONER.37 latest
./templates/default/images/folder_dl.gif * Другие HD фильмы и видео Погружение в лабиринт / Diving the Labyrinth / Blue Holes. Tauchen im Labyrinth [2010 г.,... фёдор321 0 | 0
0 B

1 | 1031

2011-05-18 14:56
bot latest
./templates/default/images/folder_dl.gif * Другие HD фильмы и видео National Geographic. Суперсооружения / Мега-слом. Подводная лодка ВМС США "Вирджиния" /... vvs002 0 | 0
0 B

1 | 2711

2011-05-30 22:29
bot latest
./templates/default/images/folder_dl.gif * National Geographic Запреты / Taboo (8 сезон: 1,2,4,5 серии из 8) [2012, Документальный, научно-познавательный,... фёдор321 0 | 0
0 B

0 | 1663

2012-06-17 20:34
фёдор321 latest
./templates/default/images/folder_dl.gif * Другие HD фильмы и видео Суперсооружения древности / Ancient Megastructures [2007-2009 г., Документальный, HDTVRip, 720p]... raver B DbIM 0 | 0
0 B

0 | 1333

2011-06-27 14:13
raver B DbIM latest
./templates/default/images/folder_dl.gif * National Geographic Супер паук / Super Spider (Винсент Аморе / Vincent Amore) [2012, Документальный, живая природа,... фёдор321 0 | 0
0 B

0 | 1094

2013-01-17 21:29
фёдор321 latest
./templates/default/images/folder_dl.gif * National Geographic National Geographic. Реальность или фантастика? / National Geographic. Is it Real? [Серии 1-15]... palych74 0 | 0
0 B

0 | 1268

2014-08-31 11:07
palych74 latest
./templates/default/images/folder_dl.gif * National Geographic Японская катастрофа: Захвачено камерой. / National Geographic - Japan Disaster: Caught On Camera... Freedom 0 | 0
0 B

3 | 1750

2011-05-26 00:30
bot latest
Ответить на тему

Текущее время: 10-Дек 21:27

Часовой пояс: GMT + 3



Вы не можете начинать темы
Вы не можете отвечать на сообщения
Вы не можете редактировать свои сообщения
Вы не можете удалять свои сообщения
Вы не можете голосовать в опросах
Вы не можете прикреплять файлы к сообщениям
Вы не можете скачивать файлы