Загрузка
Возникла ошибка загрузки данных
Регистрация ·
Имя: Пароль:
· Восстановление пароля
Качай с друзьями в разы быстрее в своей локальной сети. Подробности...

Счастливый ключ / Leokki (Ли Ге-бёк) [2016, комедия, WEBRip]

Ответить на тему
Активность по релизу
Нет
 
   
 
 
Автор Сообщение

MCGame1988


Уровень: 0

Отд: 84,837 TB

На своих: 66,74 TB

Скачано: 5,33 TB

1005577 уе

Стаж: 5 лет 6 месяцев

Сообщений: 8375

post 30-Ноя-2016 13:40

[Цитировать] 

Счастливый ключ / Leokki
pic
Год выхода: 2016
Жанр: комедия
Выпущено: Корея Южная
Продолжительность: 01:52:47
Озвучивание: Любительское (двухголосое) [Студия Колобок]
Субтитры: отсутствуют

Режиссер: Ли Ге-бёк

В ролях: Ю Хэ-джин, Ли Джун, Чо Юн-хи, Лим Джи-ён, Чо Хан-чхоль, Сон Бён-сук, Чон Хе-бин

О фильме:Неудачливый актёр Чэ-сон думает свести счёты с жизнью и напоследок решает сходить в баню. У киллера Хён-ука дела наоборот идут в гору, и он оказывается в той же самой общественной бане. Но вот незадача — поскальзывается на мыле, ударяется головой и лишается памяти. Чэ-сон решает воспользоваться ситуацией и избавиться от своей никчёмной жизни, подменив ключ от шкафчика пострадавшего на свой. Теперь киллер станет актёром, а актёр — киллером.

pic picpic

Роли озвучивали: den904, DeadSno
Перевод: Сергея Скворцова

Примечание: Релиз без рекламы.

Файл
Качество: WEBRip
Формат: AVI | XviD
Видео: 1530 kb/s, 720x304, 29.970 fps
Аудио: AC3, 192 kb/s (2 ch)
MI
Общее
Полное имя : D:загрузкиLukki.2016.WEB-DLRip.[Студия Колобок].avi
Формат : AVI
Формат/Информация : Audio Video Interleave
Размер файла : 1,37 Гбайт
Продолжительность : 1 ч. 52 м.
Общий поток : 1733 Кбит/сек
Программа кодирования : VirtualDubMod 1.5.10.3 | www.virtualdub-fr.org || (build 2550/release)
Библиотека кодирования : VirtualDubMod build 2550/release

Видео
Идентификатор : 0
Формат : MPEG-4 Visual
Профиль формата : Advanced Simple@L5
Параметр BVOP формата : 1
Параметр QPel формата : Нет
Параметр GMC формата : Без точки перехода
Параметр матрицы формата : Выборочная
Идентификатор кодека : XVID
Идентификатор кодека/Подсказка : XviD
Продолжительность : 1 ч. 52 м.
Битрейт : 1529 Кбит/сек
Ширина : 720 пикселей
Высота : 304 пикселя
Соотношение сторон : 2,35:1
Частота кадров : 29,970 кадров/сек
Цветовое пространство : YUV
Субдискретизация насыщенности : 4:2:0
Битовая глубина : 8 бит
Тип развёртки : Прогрессивная
Метод сжатия : С потерями
Бит/(Пиксели*Кадры) : 0.233
Размер потока : 1,20 Гбайт (88%)
Библиотека кодирования : XviD 73

Аудио
Идентификатор : 1
Формат : AC-3
Формат/Информация : Audio Coding 3
Расширение режима : CM (complete main)
Параметр Endianness формата : Big
Идентификатор кодека : 2000
Продолжительность : 1 ч. 52 м.
Вид битрейта : Постоянный
Битрейт : 192 Кбит/сек
Каналы : 2 канала
Расположение каналов : Front: L R
Частота : 48,0 КГц
Битовая глубина : 16 бит
Метод сжатия : С потерями
Размер потока : 155 Мбайт (11%)
Выравнивание : Разделение по промежуткам
Продолжительность промежутка : 33 мс. (1,00 видеокадр)
Время предзагрузки промежутка : 500 мс.
Скриншоты
pic pic pic
pic pic pic pic pic

pic pic pic pic pic

pic pic pic pic pic

pic

[Профиль]  [ЛС] 
Показать сообщения:    
Похожие темы
Форум Тема Автор Торрент Отв. Посл. сообщение
./templates/default/images/folder_dl.gif * Зарубежные фильмы 1991-2000 Счастливый случай / It Could Happen to You (Эндрю Бергман / Andrew Bergman) [1994 г., комедия,... gonzalis 1 | 0
1,45 GB

1 | 503

2

2017-03-24 11:20
sgo latest
./templates/default/images/folder_dl.gif Зарубежные фильмы 2013-2015 Счастливый брак / A Good Marriage (Питер Эскин / Peter Askin) [2014, США, драма, триллер, BDRip]... рич 0 | 0
1,47 GB

0 | 179

12

2015-06-06 11:44
рич latest
./templates/default/images/folder_dl.gif Зарубежные фильмы 2013-2015 Счастливый брак / A Good Marriage (Питер Эскин) [2014, триллер, драма, HDRip] DVO MCGame1988 0 | 0
1,45 GB

0 | 232

17

2015-04-13 15:21
MCGame1988 latest
./templates/default/images/folder_dl.gif * Разные российские сериалы Счастливый билет / Серии: 1-8 из 8 (Виталий Москаленко) [2012, Мелодрама, SATRip] palych74 0 | 0
0 B

0 | 388

2012-06-12 19:53
palych74 latest
./templates/default/images/folder_dl.gif * Зарубежные фильмы 2013-2015 Счастливый брак / A Good Marriage (Питер Эскин / Peter Askin) [2014, триллер, WEB-DLRip] DVO Роман84 0 | 0
0 B

0 | 250

2014-12-02 20:58
Роман84 latest
Ответить на тему

Текущее время: 30-Апр 23:36

Часовой пояс: GMT + 3



Вы не можете начинать темы
Вы не можете отвечать на сообщения
Вы не можете редактировать свои сообщения
Вы не можете удалять свои сообщения
Вы не можете голосовать в опросах
Вы не можете прикреплять файлы к сообщениям
Вы не можете скачивать файлы