Загрузка
Возникла ошибка загрузки данных
Регистрация ·
Имя: Пароль:
· Восстановление пароля
Качай с друзьями в разы быстрее в своей локальной сети. Подробности...

1984 / Тысяча девятьсот восемьдесят четвёртый / Nineteen Eighty-Four (Майкл Рэдфорд / Michael Radford) [1984, Великобритания, фантастика, триллер, драма, мелодрама, WEB-DLRip] DVO (НТВ+)

Ответить на тему
Активность по релизу
Нет
 
   
 
 
Автор Сообщение

Ferz


Уровень: 31

Отд: 36,276 TB

На своих: 16,004 TB

Скачано: 3,596 TB

132409 уе

Стаж: 5 лет 11 месяцев

Сообщений: 1022

post 11-Ноя-2015 03:29

[Цитировать] 

Тысяча девятьсот восемьдесят четвёртый / Nineteen Eighty-Four
«The year of the movie. The movie of the year.»
pic
Год выпуска: 1984
Страна: Великобритания
Жанр: Фантастика, триллер, драма, мелодрама
Продолжительность: 1:50:30
Перевод №1: Профессиональный (двухголосый закадровый) [НТВ+]
Субтитры: Нет
Режиссер: Майкл Рэдфорд / Michael Radford
В ролях: Джон Хёрт, Ричард Бёртон, Сюзанна Хэмилтон, Сирил Кьюсак, Грегор Фишер, Джеймс Уолкер, Эндрю Вильде, Дэвид Тревена, Дэвид Канн, Энтони Бенсон и др.
Описание: Для подавления массовых волнений Океании правящая партия заново воссоздает прошлое и настоящее. За каждым гражданином неусыпно наблюдают, каждому с помощью телевидения промывают мозги. И даже двое любовников вынуждены скрывать свои чувства, поскольку секс и межличностные отношения объявлены вне закона…
Сборы в США: $8 430 492
Рейтинг MPAA: R (Лицам до 17 лет обязательно присутствие взрослого!)
picpic
Качество видео: WEB-DLRip
Исходник: WEB-DL 720p
Формат видео: AVI
Видео: 704x384 (1.83:1), 23.976 fps, XviD build 73 ~1683 kbps avg, 0.26 bit/pixel
Аудио#1: 48 kHz, AC3 Dolby Digital, 2/0 (L,R) ch, ~192.00 kbps [DVO]
Аудио#2: 48 kHz, AC3 Dolby Digital, 1/0 (C) ch, ~128.00 kbps [MVO] {отдельно на файлообменнике}
Аудио#3: 48 kHz, AC3 Dolby Digital, 2/0 (L,R) ch, ~192.00 kbps [VO] {отдельно на файлообменнике}
Размер: 1490.04 Mb ( 1 562 421 248 bytes ) DVD
Интересные факты


  • Фильм посвящен памяти Ричарда Бёртона, который сыграл тут свою последнюю роль.
  • Сцена, в которой Уинстон в дневнике пишет «4 апреля 1984 года», была действительно снята 4 апреля 1984 года.
  • Помимо Ричарда Бёртона на роль О`Брайана рассматривались Пол Скофилд, Шон Коннери и Энтони Хопкинс.
MediaInfo


Код:

General
Complete name : C:Nineteen.Eighty-Four.1984.720p.WEB-DL.AAC2.0.H.264-BS1984.WEB-DLRip.[R.G.AllFilms].avi
Format : AVI
Format/Info : Audio Video Interleave
File size : 1.46 GiB
Duration : 1h 50mn
Overall bit rate : 1 885 Kbps
Movie name : Nineteen Eighty-Four (1984) - WEB-DLRip by Juvelir
Writing application : VirtualDubMod 1.5.10.3 | www.virtualdub-fr.org || (build 2550/release)
Video
ID : 0
Format : MPEG-4 Visual
Format profile : Advanced Simple@L5
Format settings, BVOP : 1
Format settings, QPel : No
Format settings, GMC : No warppoints
Format settings, Matrix : Custom
Codec ID : XVID
Codec ID/Hint : XviD
Duration : 1h 50mn
Bit rate : 1 684 Kbps
Width : 704 pixels
Height : 384 pixels
Display aspect ratio : 1.85:1
Frame rate : 23.976 fps
Color space : YUV
Chroma subsampling : 4:2:0
Bit depth : 8 bits
Scan type : Progressive
Compression mode : Lossy
Bits/(Pixel*Frame) : 0.260
Stream size : 1.30 GiB (89%)
Writing library : XviD 73
Audio
ID : 1
Format : AC-3
Format/Info : Audio Coding 3
Mode extension : CM (complete main)
Format settings, Endianness : Big
Codec ID : 2000
Duration : 1h 50mn
Bit rate mode : Constant
Bit rate : 192 Kbps
Channel(s) : 2 channels
Channel positions : Front: L R
Sampling rate : 48.0 KHz
Bit depth : 16 bits
Compression mode : Lossy
Stream size : 152 MiB (10%)
Alignment : Split accross interleaves
Interleave, duration : 42 ms (1.00 video frame)
Interleave, preload duration : 500 ms
Title : DVO (НТВ+)
Скриншоты
pic
picpicpic

pic

[Профиль]  [ЛС] 
Показать сообщения:    
Ответить на тему

Текущее время: 19-Фев 17:40

Часовой пояс: GMT + 3



Вы не можете начинать темы
Вы не можете отвечать на сообщения
Вы не можете редактировать свои сообщения
Вы не можете удалять свои сообщения
Вы не можете голосовать в опросах
Вы не можете прикреплять файлы к сообщениям
Вы не можете скачивать файлы