Загрузка
Возникла ошибка загрузки данных
Регистрация ·
Имя: Пароль:
· Восстановление пароля
Качай с друзьями в разы быстрее в своей локальной сети. Подробности...

Кто есть кто? / Flic ou voyou (Жорж Лотнер / Georges Lautner) [1979, Франция, боевик, криминал, комедия, экранизация, BDRip] P | MVO | DUB (НТВ+)

Ответить на тему
Активность по релизу
Нет
 
   
 
 
Автор Сообщение

рич


Уровень: 0

Отд: 5,115 TB

На своих: 3,839 TB

Скачано: 363,41 GB

357013 уе

Стаж: 2 года 10 месяцев

Сообщений: 1112

post 07-Июн-2015 04:31

[Цитировать] 

pic
Кто есть кто? / Flic ou voyou

Страна: Франция
Жанр: боевик, криминал, комедия, экранизация
Год выпуска: 1979
Продолжительность: 01:47:05
Перевод: Профессиональный (многоголосый закадровый), полный дубляж НТВ+
Текст читали: Елена Борзунова, Ольга Кузнецова, Александр Груздев, Валерий Сторожик, Александр Котов
Cубтитры: нет
Оригинальная аудиодорожка: нет

Режиссер: Жорж Лотнер / Georges Lautner
В ролях: Жан-Поль Бельмондо, Жорж Жере, Жан-Франсуа Бальме, Клод Броссе, Мишель Бон, Катрин Лашан, Венантино Венантини, Шарль Жерар, Мишель Галабрю, Мари Лафоре, Тони Кендалл, Филипп Кастелли, Марк Ламоль, Мишель Пейрелон, Николя Фогель, Патрик Рокка, Жюли Жезекель, Жюльетта Миллс, Мирей Орсини, Роберти, Антуан Мазелли, Жоржия Беле

Описание: В Ницце убивают комиссара полиции Бертрана. В столице догадываются, что это дело рук местной мафии, во главе которой стоят Мюзар и Вольфони. Им помогает кто-то из полиции. Комиссар полиции Гримо (Мишель Галабрю) бессилен разоблачить этих гангстеров. У него нет улик против них, не знает он и их сообщника. Тогда ему на помощь присылают суперполицейского Станислава Боровица (Жан-Поль Бельмондо) из так называемой "полиции полиций", надстройки, призванной выявлять коррупцию среди стражей порядка. Для выполнения задания Боровиц решает внедриться в мафиозную среду Ниццы. Он приезжает под именем Черутти, чтобы разобраться в обстоятельствах гибели своей любимой сестренки Риты...

pic

Качество видео: BDRip
Формат видео: AVI
Видео: DivX, 720x432 (1.67:1), 23.976 fps, 1751 kbps avg
Аудио: Russian AC3 Dolby Digital, 48 kHz, 2/0 (L,R) ch, 224.00 kbps avg
MediaInfo
General
Complete name : E:Flic.ou.voyou_1979Flic.ou.voyou_1979.BDRip.MVO.NTV+.avi
Format : AVI
Format/Info : Audio Video Interleave
File size : 1.46 GiB
Duration : 1h 47mn
Overall bit rate : 1 953 Kbps
Writing application : VirtualDubModRus 1.5.10.2 (build 2542/release)
Writing library : VirtualDubMod build 2542/release
Video
ID : 0
Format : MPEG-4 Visual
Format profile : Advanced Simple@L5
Format settings, BVOP : 1
Format settings, QPel : No
Format settings, GMC : No warppoints
Format settings, Matrix : Default (MPEG)
Codec ID : DX50
Codec ID/Hint : DivX 5
Duration : 1h 47mn
Bit rate : 1 751 Kbps
Width : 720 pixels
Height : 432 pixels
Display aspect ratio : 5:3
Frame rate : 23.976 fps
Color space : YUV
Chroma subsampling : 4:2:0
Bit depth : 8 bits
Scan type : Progressive
Compression mode : Lossy
Bits/(Pixel*Frame) : 0.235
Stream size : 1.31 GiB (90%)
Writing library : XviD 1.2.1 (UTC 2008-12-04)
Audio
ID : 1
Format : AC-3
Format/Info : Audio Coding 3
Mode extension : CM (complete main)
Format settings, Endianness : Big
Codec ID : 2000
Duration : 1h 47mn
Bit rate mode : Constant
Bit rate : 192 Kbps
Channel(s) : 2 channels
Channel positions : Front: L R
Sampling rate : 48.0 KHz
Compression mode : Lossy
Stream size : 147 MiB (10%)
Alignment : Split accross interleaves
Interleave, duration : 42 ms (1.00 video frame)
Interleave, preload duratio : 500 ms
Скриншоты
pic pic pic pic pic pic

pic

[Профиль]  [ЛС] 
Показать сообщения:    
Ответить на тему

Текущее время: 21-Ноя 13:18

Часовой пояс: GMT + 3



Вы не можете начинать темы
Вы не можете отвечать на сообщения
Вы не можете редактировать свои сообщения
Вы не можете удалять свои сообщения
Вы не можете голосовать в опросах
Вы не можете прикреплять файлы к сообщениям
Вы не можете скачивать файлы