Загрузка
Возникла ошибка загрузки данных
Регистрация ·
Имя: Пароль:
· Восстановление пароля
Качай с друзьями в разы быстрее в своей локальной сети. Подробности...

Робин Гуд / Robin Hood (Ридли Скотт) [2010 г., боевик, драма, приключения,, Blu-ray Remux] Dub |Лицензия|

Ответить на тему
Активность по релизу
Нет
 
   
 
 
Автор Сообщение

Alex1975


Уровень: 2

Отд: 12,892 TB

На своих: 6,852 TB

Скачано: 1,629 TB

29908 уе

Стаж: 7 лет 10 месяцев

Сообщений: 389

post 11-Май-2013 13:58

[Цитировать] 

Робин Гуд / Robin Hood


pic

Год выпуска: 2010
Страна: США, Великобритания
Жанр: боевик, драма, приключения,
Продолжительность: 02:35:48
Перевод: Дублированный [лицензия]
Режиссер: Ридли Скотт
В ролях:
Рассел Кроу, Кейт Бланшетт, Макс фон Сюдов, Уильям Хёрт, Марк Стронг, Оскар Айзек, Дэнни Хьюстон, Айлин Эткинс, Марк Эдди, Мэтью Макфейден
Описание:
История лучника армии Ричарда Львиное Сердце, который борется против нормандских захватчиков и становится легендарным героем, известным под именем Робин Гуд.
picpic
Бюджет: $200 000 000
Сборы в мире: $322 084 673
Качество: Blu-ray Remux 1080p.
Формат: MKV
Видео кодек: H.264
Аудио кодек: AC3
Видео: 1920х1080, 23.976 fps, 24600 kbps, 0.442 bit/pixel
Аудио 1: 48 kHz, AC3 Dolby Digital, 3/2 (L,C,R,l,r) + LFE ch, ~384 kbps
Аудио2: 48 kHz,DTS, 3/2 (L,C,R,l,r) + LFE ch, ~1576 kbps
Аудио3: 48 kHz, AC3 Dolby Digital,2 ch, ~192 kbps
Субтитры: Rus,Eng
MediaInfo
Уникальный идентификатор : 245318078934303411272774348479032587167 (0xB88E8B1D0B09171FAFF25EF88D39F39F)
Полное имя : Robin Hood.Direcrors Cut.2010.BD.Remux.1080p.h264.Rus.Eng.mkv
Формат : Matroska
Версия формата : Version 2
Размер файла : 26,8 Гбайт
Продолжительность : 2 ч. 35 м.
Режим общего битрейта : Переменный
Общий поток : 24,6 Мбит/сек
Дата кодирования : UTC 2010-09-08 10:53:41
Программа кодирования : mkvmerge v3.4.0 ('Rapunzel') built on May 15 2010 09:38:20
Библиотека кодирования : libebml v0.8.0 + libmatroska v0.9.0

Видео
Идентификатор : 1
Формат : AVC
Формат/Информация : Advanced Video Codec
Профиль формата : High@L4.1
Параметр CABAC формата : Да
Параметр ReFrames формата : 4 кадра
Режим смешивания : Container profile=Unknown@0.0
Идентификатор кодека : V_MPEG4/ISO/AVC
Продолжительность : 2 ч. 35 м.
Вид битрейта : Переменный
Битрейт : 22,0 Мбит/сек
Максимальный битрейт : 32,0 Мбит/сек
Ширина : 1920 пикселей
Высота : 1080 пикселей
Соотношение сторон : 16:9
Частота кадров : 23,976 кадра/сек
Цветовое пространство : YUV
Субдискретизация насыщенности : 4:2:0
Битовая глубина : 8 бит
Тип развёртки : Прогрессивная
Бит/(Пиксели*Кадры) : 0.442
Размер потока : 23,9 Гбайт (89%)
Язык : English
Default : Да
Forced : Нет
Основные цвета : BT.709-5, BT.1361, IEC 61966-2-4, SMPTE RP177
Характеристики трансфера : BT.709-5, BT.1361
Коэффициенты матрицы : BT.709-5, BT.1361, IEC 61966-2-4 709, SMPTE RP177

Аудио #1
Идентификатор : 2
Формат : AC-3
Формат/Информация : Audio Coding 3
Расширение режима : CM (complete main)
Идентификатор кодека : A_AC3
Продолжительность : 2 ч. 35 м.
Вид битрейта : Постоянный
Битрейт : 384 Кбит/сек
Каналы : 6 каналов
Расположение каналов : Front: L C R, Side: L R, LFE
Частота : 48,0 КГц
Битовая глубина : 16 бит
Метод сжатия : С потерями
Размер потока : 428 Мбайт (2%)
Заголовок : Dublyazh AC3 5.1 384 kbps
Язык : Russian
Default : Да
Forced : Нет

Аудио #2
Идентификатор : 3
Формат : DTS
Формат/Информация : Digital Theater Systems
Профиль формата : MA / Core
Идентификатор кодека : A_DTS
Продолжительность : 2 ч. 35 м.
Вид битрейта : Переменный
Битрейт : 1576 Кбит/сек / 1510 Кбит/сек
Каналы : 6 каналов
Расположение каналов : Front: L C R, Side: L R, LFE
Частота : 48,0 КГц
Битовая глубина : 24 бит
Метод сжатия : Без потерь / Lossy
Заголовок : DTS-HD Master Audio, 5.1, 4206 kbps, 24 bit, Lossless (1536 kbps core)
Язык : English
Default : Нет
Forced : Нет

Аудио #3
Идентификатор : 4
Формат : AC-3
Формат/Информация : Audio Coding 3
Профиль формата : Dolby Digital
Расширение режима : CM (complete main)
Идентификатор кодека : A_AC3
Продолжительность : 2 ч. 35 м.
Вид битрейта : Постоянный
Битрейт : 192 Кбит/сек
Каналы : 2 канала
Расположение каналов : Front: L R
Частота : 48,0 КГц
Битовая глубина : 16 бит
Метод сжатия : С потерями
Размер потока : 214 Мбайт (1%)
Заголовок : Descriptive AC3 2.0 192 kbps
Язык : English
Default : Нет
Forced : Нет

Текст #1
Идентификатор : 5
Формат : UTF-8
Идентификатор кодека : S_TEXT/UTF8
Идентификатор кодека/Информация : UTF-8 Plain Text
Заголовок : Forced
Язык : Russian
Default : Да
Forced : Нет

Текст #2
Идентификатор : 6
Формат : UTF-8
Идентификатор кодека : S_TEXT/UTF8
Идентификатор кодека/Информация : UTF-8 Plain Text
Язык : English
Default : Нет
Forced : Нет

Меню
00:00:00.000 : en:Chapter 1
00:12:05.975 : en:Chapter 2
00:18:27.440 : en:Chapter 3
00:25:11.552 : en:Chapter 4
00:33:31.426 : en:Chapter 5
00:38:36.981 : en:Chapter 6
00:48:42.586 : en:Chapter 7
00:57:11.887 : en:Chapter 8
01:04:14.309 : en:Chapter 9
01:10:41.612 : en:Chapter 10
01:23:24.624 : en:Chapter 11
01:32:17.115 : en:Chapter 12
01:40:30.149 : en:Chapter 13
01:49:15.882 : en:Chapter 14
01:56:06.418 : en:Chapter 15
02:02:29.091 : en:Chapter 16
02:09:20.669 : en:Chapter 17
02:18:21.418 : en:Chapter 18
02:22:48.685 : en:Chapter 19
Скриншоты
pic
pic
pic
pic
pic

[Профиль]  [ЛС] 

post 19-Май-2013 11:38 (спустя 7 дней)

Топик был перенесен из форума Новые релизы HD, 3D в форум Зарубежные фильмы (Диски и ремуксы HD)

kosteg37
 
Показать сообщения:    
Похожие темы
Форум Тема Автор Торрент Отв. Посл. сообщение
./templates/default/images/folder_dl.gif Другие зарубежные мультсериалы Том и Джерри: Робин Гуд и мышь-весельчак / Tom And Jerry: Robin Hood And His Merry Mouse (Спайк... Роман84 0 | 0
1,09 GB

0 | 1115

65

2012-11-05 18:04
Роман84 latest
./templates/default/images/folder_dl.gif Зарубежные мультфильмы в идеальном качестве Робин Гуд / Robin Hood (Вольфганг Райтерман / Wolfgang Reitherman) [1973 г., мелодрама,... {D-Tritus} 0 | 0
1,92 GB

1 | 399

5

2011-02-22 03:00
bot latest
./templates/default/images/folder_dl.gif Зарубежные фильмы 2010-2012 Робин Гуд / Robin Hood (Ридли Скотт) [2010, Боевик, драма, BDRip-AVC] 720p IMDB 6.8 | Полная... РелизБот 1 | 0
2,49 GB

1 | 274

67

2011-06-23 18:45
bot latest
./templates/default/images/folder_dl.gif * Зарубежные фильмы HD до 2012 (Диски и ремуксы) Робин Гуд / Robin Hood (Ридли Скотт / Ridley Scott) [2010 г., боевик, приключения, драма, BDRip... Freedom 0 | 0
0 B

0 | 1043

2013-08-24 19:00
Freedom latest
./templates/default/images/folder_dl.gif * Видео для PSP [VIDEO4PSP] Робин Гуд / Robin Hood (Ридли Скотт / Ridley Scott) [2010, США / Великобритания,... DimanG888 0 | 0
0 B

0 | 760

2012-07-23 22:53
DimanG888 latest
./templates/default/images/folder_dl.gif * Зарубежные фильмы 2010-2012 Робин Гуд / Robin Hood (Ридли Скотт / Ridley Scott) [2010, боевик, драма, исторический,... Anonymous 0 | 0
0 B

0 | 242

2011-03-21 22:26
Anonymous latest
Ответить на тему

Текущее время: 10-Дек 20:22

Часовой пояс: GMT + 3



Вы не можете начинать темы
Вы не можете отвечать на сообщения
Вы не можете редактировать свои сообщения
Вы не можете удалять свои сообщения
Вы не можете голосовать в опросах
Вы не можете прикреплять файлы к сообщениям
Вы не можете скачивать файлы