Загрузка
Возникла ошибка загрузки данных
Регистрация ·
Имя: Пароль:
· Восстановление пароля
Качай с друзьями в разы быстрее в своей локальной сети. Подробности...

Стыдно, когда видно! [2011-2012, 28 Выпусков, Юмор, Эротическое шоу, SATRip]

Ответить на тему
Активность по релизу
Нет
 
   
 
 
Автор Сообщение

SNICKERS


Уровень: 4

Отд: 14,03 TB

На своих: 10,029 TB

Скачано: 1,142 TB

119562 уе

Стаж: 7 лет 5 месяцев

Сообщений: 413

post 11-Июн-2012 08:55

[Цитировать] 

Стыдно, когда видно! (28 выпусков)
pic
Год выпуска: 2011-2012
Страна: Россия
Жанр: Юмор, Эротическое шоу
Продолжительность: ~00:20:00
Перевод: Не требуется
Описание: Телеканал "Перец" бережно собрал самое неприличное видео в Сети в одну телевизионную программу. Эти жители планеты вытворяют такое, что стыдно смотреть. Зато смешно! Нелепые случайности и продуманные глупости для зрителей, которые хотят беззаботно провести свое свободное время! Новая развлекательная телепрограмма "Стыдно, когда видно!" - от создателей “Голые и смешные”. Смысл передачи в том, что мы ведем себя настолько необычно, когда буквально уверены: никто этого никогда не увидит, и что после этого бывает – стыдно. Скрытые камеры расставлены в самых неожиданных для людей местах. Самый занимательный проект телеканала ПЕРЕЦ: что же делают люди, когда их никто не видит.
Доп. информация: Релиз Рипер.АМ
Качество: SATRip
Формат: AVI
Видео кодек: XviD
Аудио кодек: MP3
Видео: Xvid 720x480 25.00fps 1 532 Kbps
Аудио: MPEG Audio Layer 3 44100Hz stereo 128kbps
Media info
General
Complete name : D:Стыдно, когда видноСтыдно, когда видно (2011.12.31).avi
Format : AVI
Format/Info : Audio Video Interleave
File size : 234 MiB
Duration : 19mn 35s
Overall bit rate : 1 672 Kbps
Writing application : Lavf51.12.1
Video
ID : 0
Format : xvid
Codec ID : xvid
Duration : 19mn 35s
Bit rate : 1 532 Kbps
Width : 720 pixels
Height : 480 pixels
Display aspect ratio : 3:2
Frame rate : 25.000 fps
Standard : NTSC
Bits/(Pixel*Frame) : 0.177
Stream size : 215 MiB (92%)
Audio
ID : 1
Format : MPEG Audio
Format version : Version 1
Format profile : Layer 3
Mode : Joint stereo
Mode extension : MS Stereo
Codec ID : 55
Codec ID/Hint : MP3
Duration : 19mn 35s
Bit rate mode : Constant
Bit rate : 128 Kbps
Channel(s) : 2 channels
Sampling rate : 44.1 KHz
Compression mode : Lossy
Stream size : 17.9 MiB (8%)
Alignment : Aligned on interleaves
Interleave, duration : 26 ms (0.65 video frame)
Interleave, preload duration : 26 ms


Скриншоты и скринлисты
Скриншоты
pic pic pic pic pic pic


Скринлисты
pic pic pic pic pic pic pic pic pic pic pic pic pic pic pic pic pic pic pic pic pic pic pic pic pic pic pic
pic
По мере выхода будут дополнятся новыми выпусками


_________________
pic


Последний раз редактировалось: SNICKERS (2012-06-17 17:19), всего редактировалось 2 раз(а)
[Профиль]  [ЛС] 

Alekseу


Уровень: 7

Отд: 31,894 TB

На своих: 22,375 TB

Скачано: 4,346 TB

149902 уе

Стаж: 7 лет 5 месяцев

Сообщений: 332

post 11-Июн-2012 11:29 (спустя 2 часа 34 минуты)

[Цитировать] 

Я скачивал их, некоторые посмотрел. Не понравилось то, что в выпусках или частично, или полностью повторы, а некоторые ролики повторяются несколько раз. Это видно, например, на первом и последнем скринлисте.
[Профиль]  [ЛС] 

SNICKERS


Уровень: 4

Отд: 14,03 TB

На своих: 10,029 TB

Скачано: 1,142 TB

119562 уе

Стаж: 7 лет 5 месяцев

Сообщений: 413

post 17-Июн-2012 17:18 (спустя 6 дней)

[Цитировать] 

исправил, последний выпуск был повторм первого

_________________
pic
[Профиль]  [ЛС] 

каскад


Уровень: 0

Отд: 112,56 GB

На своих: 27,91 GB

Скачано: 100,13 GB

69907 уе

Стаж: 6 лет

Сообщений: 51

post 30-Июн-2012 21:04 (спустя 13 дней)

[Цитировать] 

посмеяться можно.забавная телепередача.спасибо.
[Профиль]  [ЛС] 
Показать сообщения:    
Похожие темы
Форум Тема Автор Торрент Отв. Посл. сообщение
./templates/default/images/folder_dl.gif * Обменник файлами Стыдно, когда видно! (9 выпускoв) [2012 г., Юмор, эротическое шоу] pcix0pat 0 | 0
0 B

0 | 789

2012-02-12 19:51
pcix0pat latest
./templates/default/images/folder_dl.gif * Обменник файлами Стыдно, когда видно! [2011-2012, 29 Выпусков, Юмор, Эротическое шоу, SATRip] Alekseу 0 | 0
0 B

0 | 1517

2012-05-30 22:26
Alekseу latest
Ответить на тему

Текущее время: 21-Июл 05:16

Часовой пояс: GMT + 3



Вы не можете начинать темы
Вы не можете отвечать на сообщения
Вы не можете редактировать свои сообщения
Вы не можете удалять свои сообщения
Вы не можете голосовать в опросах
Вы не можете прикреплять файлы к сообщениям
Вы не можете скачивать файлы