Загрузка
Возникла ошибка загрузки данных
Регистрация ·
Имя: Пароль:
· Восстановление пароля
Качай с друзьями в разы быстрее в своей локальной сети. Подробности...

Столкновение континентов / Clash of the Continents / Scontro Di Continenti (2 фильма из 2) (Майк Ибеджи / Mike Ibeji) [2010 г., Документальный, BDRip 720p], National Geographic

Ответить на тему
Активность по релизу
Нет
 
   
 
 
Автор Сообщение

фёдор321


Уровень: 2

Отд: 13,803 TB

На своих: 6,947 TB

Скачано: 2,075 TB

367796 уе

Стаж: 7 лет 6 месяцев

Сообщений: 276

post 16-Мар-2012 21:37

[Цитировать] 

Столкновение континентов / Clash of the Continents / Scontro Di Continenti
pic
Год выпуска: 2010
Страна: Новая Зеландия (Natural History New Zealand Ltd), США (NGC Network International, LLC and NGC Network US, LLC)
Жанр: Документальный
Продолжительность: 2 x ~ 00:45:11
Перевод: Профессиональный (одноголосый)
Русские субтитры: нет
Режиссер: Майк Ибеджи / Mike Ibeji
Описание: Представьте, что вы астронавт, который в далеком будущем отважно отправился в космическое путешествие на край Вселенной. И вот 250 млн. лет спустя, вы возвращаетесь назад. Все, что вы помните, исчезло. Пройдет ли наша планета полный цикл перемен, как предсказывает большинство ученых? Сложится ли вся суша воедино, чтобы образовать один гигантский континент? Возможно, непреодолимые силы геологии, уже стерли с лица Земли все присутствие человека - при помощи воды, ветра и льда. Возможно от нас не останется ничего, кроме окаменелых останков. 250 млн. лет спустя, после нашего расцвета... какие геологические свидетельства смогут доказать, что мы когда-то жили?
1. Конец Рая / End of Eden / La Fine Dell Eden. Земля... 250 млн. лет спустя. Космический странник возвращается домой. Пока он находился в своем корабле, перемещаясь со скоростью близкой к скорости света, относительность сотворила свои известные чудеса. Для него прошло всего несколько десятилетий, но снаружи изменилась вся Вселенная. За то время, пока он отсутствовал, Земля значительно постарела, пейзаж, представший перед его глазами, ему незнаком... Ему потребуется помощь всех технических приспособлений корабля, чтобы понять, что здесь случилось.
2. Судьба человечества / Fate of Man (End of Man, Descent into Hell) / Il Destino Dell Uomo. Земля... 250 млн. лет спустя. Одинокий космический странник спускается на планету. Он проделал долгий путь, чтобы сюда попасть, и теперь опасается, что может остаться один. Все свидетельства и памятники его прошлого разрушены, унесены ветрами времен. И тогда он поймет, что ад спустился на Землю...
Доп. информация: Релиз группы pic
Сведение дорожек и автор постера- nyctalus
Этот фильм в формате avi ---> http://rutracker.org/forum/viewtopic.php?t=3885599
Качество: BDRip
Формат: MKV
Видео кодек: H.264
Аудио кодек: AC3
Видео: MPEG-4 AVC, 4161 Кбит/с, 1280x720, 25.000 fps
Аудио #1: Русский (AC3, 2 ch, 128 Кбит/с, 48 kHz)
Аудио #2: English (AC3, 6 ch, 384 Кбит/с, 48 kHz)
Субтитры: English
Скриншоты
pic pic pic pic
pic pic pic pic
pic pic pic pic
pic pic pic pic
MediaInfo (для 1-й серии)
General
Complete name : Stolknovenie.kontinentov.1.konec.raja.2010.x264.BDRip(720p)_DaVinci.mkv
Format : Matroska
Format version : Version 2
File size : 1.50 GiB
Duration : 45mn 11s
Overall bit rate : 4 768 Kbps
Encoded date : UTC 2011-11-23 00:18:43
Writing application : mkvmerge v3.2.0 ('Beginnings') built on Feb 12 2010 16:46:17
Writing library : libebml v0.7.9 + libmatroska v0.8.1
Video
ID : 1
Format : AVC
Format/Info : Advanced Video Codec
Format profile : High@L4.1
Format settings, CABAC : Yes
Format settings, ReFrames : 8 frames
Codec ID : V_MPEG4/ISO/AVC
Duration : 45mn 11s
Bit rate : 4 253 Kbps
Width : 1 280 pixels
Height : 720 pixels
Display aspect ratio : 16:9
Frame rate : 25.000 fps
Color space : YUV
Chroma subsampling : 4:2:0
Bit depth : 8 bits
Scan type : Progressive
Bits/(Pixel*Frame) : 0.185
Stream size : 1.31 GiB (87%)
Writing library : x264 core 119 r2106 07efeb4
Encoding settings : cabac=1 / ref=8 / deblock=1:-2:-1 / analyse=0x3:0x113 / me=umh / subme=10 / psy=1 / psy_rd=1.00:0.20 / mixed_ref=1 / me_range=32 / chroma_me=1 / trellis=2 / 8x8dct=1 / cqm=0 / deadzone=21,11 / fast_pskip=0 / chroma_qp_offset=-3 / threads=12 / sliced_threads=0 / nr=0 / decimate=0 / interlaced=0 / bluray_compat=0 / constrained_intra=0 / bframes=3 / b_pyramid=2 / b_adapt=2 / b_bias=0 / direct=3 / weightb=1 / open_gop=0 / weightp=2 / keyint=250 / keyint_min=25 / scenecut=40 / intra_refresh=0 / rc_lookahead=60 / rc=2pass / mbtree=1 / bitrate=4253 / ratetol=1.0 / qcomp=0.60 / qpmin=0 / qpmax=69 / qpstep=4 / cplxblur=20.0 / qblur=0.5 / vbv_maxrate=50000 / vbv_bufsize=50000 / nal_hrd=none / ip_ratio=1.40 / aq=1:1.00
Language : English
Default : No
Forced : No
Audio #1
ID : 2
Format : AC-3
Format/Info : Audio Coding 3
Mode extension : CM (complete main)
Codec ID : A_AC3
Duration : 45mn 11s
Bit rate mode : Constant
Bit rate : 128 Kbps
Channel(s) : 2 channels
Channel positions : Front: L R
Sampling rate : 48.0 KHz
Bit depth : 16 bits
Compression mode : Lossy
Delay relative to video : 14ms
Stream size : 41.4 MiB (3%)
Title : stolknovenija_1
Language : Russian
Default : Yes
Forced : Yes
Audio #2
ID : 3
Format : AC-3
Format/Info : Audio Coding 3
Mode extension : CM (complete main)
Codec ID : A_AC3
Duration : 45mn 11s
Bit rate mode : Constant
Bit rate : 384 Kbps
Channel(s) : 6 channels
Channel positions : Front: L C R, Side: L R, LFE
Sampling rate : 48.0 KHz
Bit depth : 16 bits
Compression mode : Lossy
Delay relative to video : 14ms
Stream size : 124 MiB (8%)
Title : clash_1
Language : English
Default : No
Forced : No
Text
ID : 4
Format : UTF-8
Codec ID : S_TEXT/UTF8
Codec ID/Info : UTF-8 Plain Text
Title : subtitres1
Language : English
Default : Yes
Forced : No

Источник: pic

[Профиль]  [ЛС] 
Показать сообщения:    
Похожие темы
Форум Тема Автор Торрент Отв. Посл. сообщение
./templates/default/images/folder_dl.gif Мультфильмы HD Ледниковый период: Столкновение неизбежно / Ice Age: Collision Course (Майк Тёрмайер, Гален Т. Чу)... MCGame1988 0 | 0
4,46 GB

0 | 110

21

2016-11-03 13:18
MCGame1988 latest
./templates/default/images/folder_dl.gif Зарубежные мультфильмы в идеальном качестве (AVC) Ледниковый период: Столкновение неизбежно / Ice Age: Collision Course (Майк Тёрмайер / Mike... MCGame1988 0 | 0
1,46 GB

0 | 89

39

2016-11-03 13:16
MCGame1988 latest
./templates/default/images/folder_dl.gif Зарубежные мультфильмы в идеальном качестве (AVC) Ледниковый период: Столкновение неизбежно / Ice Age: Collision Course (Майк Тёрмайер / Mike... MCGame1988 0 | 0
2,18 GB

0 | 39

12

2016-11-03 13:14
MCGame1988 latest
./templates/default/images/folder_dl.gif Мультфильмы HD Ледниковый период: Столкновение неизбежно / Ice Age: Collision Course (Майк Тёрмайер, Гален Т. Чу)... MCGame1988 0 | 0
4,62 GB

0 | 118

31

2016-10-01 15:32
MCGame1988 latest
./templates/default/images/folder_dl.gif Зарубежные мультфильмы в хорошем качестве Ледниковый период: Столкновение неизбежно / Ice Age: Collision Course (Майк Тёрмайер, Гален Т. Чу)... MCGame1988 0 | 0
746 MB

0 | 106

20

2016-09-30 16:41
MCGame1988 latest
./templates/default/images/folder_dl.gif Зарубежные мультфильмы в идеальном качестве Ледниковый период: Столкновение неизбежно / Ice Age: Collision Course (Майк Тёрмайер, Гален Т. Чу)... MCGame1988 0 | 0
1,37 GB

0 | 301

131

2016-09-30 14:04
MCGame1988 latest
./templates/default/images/folder_dl.gif Мультфильмы HD Ледниковый период: Столкновение неизбежно / Ice Age: Collision Course (Майк Тёрмайер, Гален Т. Чу)... MCGame1988 0 | 0
3,12 GB

0 | 74

29

2016-09-30 13:51
MCGame1988 latest
./templates/default/images/folder_dl.gif Зарубежные фильмы 2001-2005 Столкновение / Crash (Пол Хаггис / Paul Haggis) [2004 г., драма, криминал, HDRip] Xamer 0 | 0
1,45 GB

1 | 1129

40

2012-01-01 18:46
McLaren latest
./templates/default/images/folder_dl.gif * BBC World Столкновение с астероидом. 24 часа, изменившие мир / 24 Hours After. Asteroid Impact [2009 г,... MCGame1988 0 | 0
0 B

0 | 1043

2012-07-08 18:56
MCGame1988 latest
./templates/default/images/folder_dl.gif * Зарубежные фильмы 1991-2000 Столкновение с бездной / Deep Impact (Мими Ледер / Mimi Leder) [1998, фантастика, боевик, триллер,... РелизБот 0 | 0
0 B

1 | 1005

2011-10-09 19:38
bot latest
./templates/default/images/folder_dl.gif * Зарубежные фильмы 2001-2005 Столкновение / Crash (Пол Хаггис / Paul Haggis) [2004 г., драма, криминал, BDRip] [Director's Cut] tatusha 0 | 0
0 B

0 | 919

2012-01-28 10:19
tatusha latest
./templates/default/images/folder_dl.gif * Зарубежные фильмы 2010-2012 Столкновение Земли / Collision Earth (Пол Зиллер / Paul Ziller) [2011, фантастика, боевик,... SILVER37RUS 0 | 0
0 B

0 | 382

2012-12-22 07:33
SILVER37RUS latest
./templates/default/images/folder_dl.gif * Зарубежные фильмы 2010-2012 Воздушное столкновение / Опасный рейс / Air Collision (Лиз Адамс / Liz Adams) [2012, боевик,... SILVER37RUS 0 | 0
0 B

0 | 270

2012-11-01 19:02
SILVER37RUS latest
./templates/default/images/folder_dl.gif * Зарубежные фильмы 1991-2000 Столкновение с бездной / Deep Impact (Мими Ледер / Mimi Leder) [1998, боевик, фантастика, триллер,... РелизБот 0 | 0
0 B

1 | 1018

2011-07-15 22:13
bot latest
Ответить на тему

Текущее время: 15-Авг 00:23

Часовой пояс: GMT + 3



Вы не можете начинать темы
Вы не можете отвечать на сообщения
Вы не можете редактировать свои сообщения
Вы не можете удалять свои сообщения
Вы не можете голосовать в опросах
Вы не можете прикреплять файлы к сообщениям
Вы не можете скачивать файлы