Загрузка
Возникла ошибка загрузки данных
Регистрация ·
Имя: Пароль:
· Восстановление пароля
Качай с друзьями в разы быстрее в своей локальной сети. Подробности...

Руководство по BBCode

Страницы:  1, 2  След.

Ответить на тему
 
Автор Сообщение

brhr


Уровень: 0

Отд: 0 B

На своих: 0 B

Скачано: 0 B

0 уе

post 18-Май-2008 10:47

[Цитировать] 

Что такое BBCode?

BBCode — это специальный вариант HTML. Сможете вы или нет использовать BBCode в ваших сообщениях, определяется администратором форумов. Кроме того, вы сможете отключить использование BBCode в конкретном сообщении при его размещении. Сам BBCode похож по стилю на HTML, теги заключены в квадратные скобки [ и ], а не в < и >; он даёт больше возможностей управления тем, как выводятся данные. При использовании некоторых шаблонов вы сможете добавлять BBCode в ваши сообщения, пользуясь простым интерфейсом, расположенным над полем для ввода текста. Но даже в этом случае данное руководство может оказаться полезным.

Форматирование текста

Как сделать текст жирным, наклонным или подчёркнутым

BBCode включает теги для быстрого изменения стиля шрифта, сделать это можно следующими способами:
Чтобы сделать текст жирным, заключите его в [ b ][ / b], например

Привет

станет Привет
Для подчёркивания используйте [ u] [ /u ], например:

Доброе утро

станет Доброе утро
Курсив делается тегами [ i ][ /i ], например:

Это круто!

выдаст Это круто!
Как изменить цвет или размер текста

Для изменения цвета или размера шрифта могут быть использованы следующие теги (окончательный вид будет зависеть от системы и браузера пользователя):
Цвет текста можно изменить, окружив его [ color= ][ /color ]. Вы можете указать либо известное имя цвета (red, blue, yellow и т.п.), или шестнадцатеричное представление, например #FFFFFF, #000000. Таким образом, для создания красного текста вы можете использовать:

[ color=red]Привет![ /color ]

или

[ color=#FF0000 ]Привет![ /color ]

оба способа дадут в результате Привет!
Изменение размера достигается аналогичным образом при использовании [ size= ][ /size ]. Этот тег зависит от используемых шаблонов, рекомендуемый формат — число, показывающее размер текста в пикселях, начиная от 1 (настолько маленький, что вы его не увидите) до 29 (очень большой). Например:

[ size=9 ]МАЛЕНЬКИЙ[ /size ]

скорее всего будет МАЛЕНЬКИЙ

в то время как:

[ size=24 ]ЗДОРОВЫЙ![ /size ]

будет ЗДОРОВЫЙ!
Могу ли я комбинировать теги?

Да, конечно можете. Например для привлечения чьего-то внимания вы сможете написать:

[ size=18 ][ color=red ][ b ]ПОСМОТРИТЕ НА МЕНЯ![ /b ][ /color ][ /size ]

что выдаст ПОСМОТРИТЕ НА МЕНЯ!

Мы не рекомендуем выводить таким образом длинные тексты! Учтите, что вы, автор сообщения, должны позаботиться о том, чтобы теги были правильно вложены. Вот этот BBCode, например, неправилен:

[ b ][ u ]Это неверно[ /b ][ /u ]
Цитирование и вывод форматированных текстов

Цитирование при ответах

Есть два способа процитировать текст, со ссылкой и без.
Когда вы используете кнопку «Ответить с цитатой» для ответа на сообщение, то его текст добавляется в поле ввода окружённым блоком [ quote=""][/quote ]. Этот метод позволит вам цитировать со ссылкой на автора, либо на что-то ещё, что вы туда впишете. Например для цитирования отрывка текста, написанного Mr. Blobby, вы напишете:

[ quote="Mr. Blobby" ]Текст Mr. Blobby будет здесь[ /quote ]

В результате перед текстом будут вставлены слова "Mr. Blobby написал:". Помните, вы должны поставить кавычки "" вокруг имени, они не могут быть опущены.
Второй метод просто позволяет вам что-то процитировать. Для этого вам надо заключить текст в теги [ quote ][ /quote ]. При просмотре сообщения перед текстом будет стоять только слово "Цитата:"

Вывод кода или форматированного текста

Если вам надо вывести кусок программы или что-то, что должно быть выведено шрифтом фиксированной ширины (Courier) вы должны заключить текст в теги [ code ][ /code ], например

Код:

echo "This is some code";


Всё форматирование, используемое внутри тегов [ code ][ /code ] будет сохранено.
Создание списков

Создание маркированного списка

BBCode поддерживает два вида списков: маркированные и нумерованные. Они практически идентичны своим эквивалентам из HTML. В маркированном списке все элементы выводятся последовательно, каждый отмечается символом-маркером. Для создания маркированного списка используйте [ list ][ /list ] и определите каждый элемент при помощи [*]. Например, чтобы вывести свои любимые цвета, вы можете использовать:

[ list ]
[ * ]Красный
[ * ]Синий
[ * ]Жёлтый
[ /list ]

    Это выдаст такой список:
  • Красный
  • Синий
  • Жёлтый

Создание нумерованного списка

Второй тип списка, нумерованный, позволяет выбрать, что именно будет выводиться перед каждым элементом. Для создания нумерованного списка используйте [ list=1 ][ /list ] или [ list=a ][ /list ] для создания алфавитного списка. Как и в случае маркированного списка, элементы определяются с помощью [*] . Например:

[ list=1 ]
[ * ]Пойти в магазин
[ * ]Купить новый компьютер
[ * ]Обругать компьютер, когда случится ошибка
[ /list ]

выдаст следующее:
  1. Пойти в магазин
  2. Купить новый компьютер
  3. Обругать компьютер, когда случится ошибка
Для алфавитного списка используйте:

[ list=a ]
[ * ]Первый возможный ответ
[ * ]Второй возможный ответ
[ * ]Третий возможный ответ
[ /list ]

что выдаст
  1. Первый возможный ответ
  2. Второй возможный ответ
  3. Третий возможный ответ

Создание ссылок

Ссылки на другой сайт

В BBCode поддерживается несколько способов создания URL'ов.
Первый из них использует тег [ url= ][ /url ], после знака = должен идти нужный URL. Например, для ссылки на phpBB.com вы могли бы использовать:

[ url=http://www.phpbb.com/ ]Посетите phpBB![ /url ]

Это создаст следующую ссылку: Посетите phpBB! Ссылка будет открываться в новом окне, так что пользователь сможет продолжать читать форумы.
Если вы хотите, чтобы в качестве текста ссылки показывался сам URL, вы можете просто сделать следующее:

[ url ]http://www.phpbb.com/[ /url ]

Это выдаст следующую ссылку: http://www.phpbb.com/
Кроме того phpBB поддерживает возможность, называемую Автоматические ссылки, это переведёт любой синтаксически правильный URL в ссылку без необходимости указания тегов и даже префикса http://. Например, ввод www.phpbb.com в ваше сообщение приведёт к автоматической выдаче www.phpbb.com при просмотре сообщения.
То же самое относится и к адресам e-mail, вы можете либо указать адрес в явном виде:

[ email ]no.one@domain.adr[ /email ]

что выдаст no.one@domain.adr или просто ввести no.one@domain.adr в ваше сообщение, и он будет автоматически преобразован при просмотре.
Как и со всеми прочими тегами BBCode, вы можете заключать в URL'ы любые другие теги, например [img][/img] (см. следующий пункт), и т.д. Как и с тегами форматирования, правильная вложенность тегов зависит от вас, например:

[ url=http://www.phpbb.com/ ][ img ] http://www.phpbb.com/images/phplogo.gif [ /url ][ /img ]

неверно, что может привести к последующему удалению вашего сообщения, так что будьте аккуратнее.

Показ картинок в сообщениях

Добавление картинки в сообщение

BBCode включает тег для добавления картинки в ваше сообщение. При этом следует помнить две очень важные вещи: во-первых, многих пользователей раздражает большое количество картинок, во-вторых, ваша картинка уже должна быть размещена в интернете (т.е. она не может быть расположена только на вашем компьютере, если, конечно, вы не запустили на нём вебсервер!). На данный момент нет возможности хранить изображения локально на phpBB (ожидается, что это ограничение будет снято в следующей версии phpBB). Для вывода картинки вы должны окружить её URL тегами [img][/img]. Например:

[ img ]http://www.phpbb.com/images/phplogo.gif[ /img ]

Как указано в предыдущем пункте, вы можете заключить картинку в теги [ url ][ /url ], то есть

[ url=http://www.phpbb.com/ ][ img ] http://www.phpbb.com/images/phplogo.gif [ /img ][ /url ]
Прочее

Могу ли я добавить собственные теги?

Нет, по крайней мере, не в phpBB 2.0.
Чтобы теги работали они должны быть без пробелов



Последний раз редактировалось: brhr (2008-05-21 14:04), всего редактировалось 1 раз
 

Xamer


Уровень: 4

Отд: 42,129 TB

На своих: 17,936 TB

Скачано: 13,326 TB

571668 уе

Стаж: 9 лет 6 месяцев

Сообщений: 8089

post 18-Май-2008 20:45 (спустя 9 часов)

[Цитировать] 

brhr
лучше все теги указанные заключить в тег code и тогда их можно пистаь без всяких пробелов, то есть так как они есть на самом беле! пример ниже

Код:

[url][img]http://172.20.160.234/forum[/img][/url]
[Профиль]  [ЛС] 

brhr


Уровень: 0

Отд: 0 B

На своих: 0 B

Скачано: 0 B

0 уе

post 21-Май-2008 14:03 (спустя 2 дня 17 часов)

[Цитировать] 

время будет - поправлю, безусловно
 

RyBak


Уровень: 2

Отд: 12,798 TB

На своих: 5,903 TB

Скачано: 1,163 TB

386232 уе

Стаж: 9 лет 5 месяцев

Сообщений: 1752

post 01-Окт-2008 23:57 (спустя 4 месяца 11 дней)

[Цитировать] 

Сегодня узнал интересную вещь:
если копирнуть не заголовок, а сам спойлер, то всё его содержимое будет у вас "в руках".
пример
1981 - Синий альбом - Anthology-2002-CD01
Трэклист:
01. Железнодорожная Вода (5:41)
02. Герои Рок'н'Ролла (Молодая Шпана) (3:37)
03. Гость (2:01)
04. Странные объекты между светом и звуком (0:43)
05. Электрический Пёс (3:51)
06. Все что Я хочу (4:31)
07. Чай (2:19)
08. Плоскость (6:54)
09. Рутман (3:11)
10. В Подобную Ночь (3:00)
11. Единственный Дом (Джа даст Нам Всё) (2:14)
12. Река (4:19)
13. Пионерская, 38 [bonus track] (1:41)
14. 14 [bonus track] (3:44)
15. Вызываю Огонь на Себя [bonus track] (3:01)
Лог EAC
Отчёт EAC об извлечении, выполненном 15. марта 2006, 2:31 для диска:
Аквариум / Синий Альбом (Антология 2002)
Дисковод: TOSHIBA DVD-ROM SD-R6012 Adapter: 0 ID: 1
Режим чтения: Достоверный (C2: нет, Точный поток: да, Отключение кэша: да)
Коррекция смещения при чтении: 116
Способность читать области Lead-in и Lead-out : Нет
Выходной формат: Внутренние WAV-операции
44.100 Гц; 16 бит; стерео
Другие параметры:
Заполнение пропущенных сэмплов тишиной : Да
Удаление блоков с тишиной в начале и конце : Нет
Установленный внешний ASPI-интерфейс
Характеристики диапазона извлечения и сообщения об ошибках
Выбранный диапазон
Имя файла C:isoNoa1998-Both.side.of.Seacdimage.wav
Пиковый уровень 99.9 %
Качество диапазона 100.0 %
CRC C5C6AE0F
Копирование... OK
Ошибок не произошло
Конец отчёта
1981 - Треугольник
Трэклист:
01. Корнелий Шнапс (1:07)
02. Поручик Иванов (1:50)
03. Марш (1:29)
04. Старик Козлодоев (2:29)
05. Поэзия (0:47)
06. Два тракториста (1:58)
07. Мочалкин блюз (3:46)
08. Хорал (0:25)
09. Крюкообразность (1:38)
10. Матрос (1:38)
11. Миша из города скрипящих статуй (3:12)
12. Гиневер (1:50)
13. Начальник фарфоровой башни (4:42)
14. У императора Нерона (1:32)
15. Мой муравей (3:47)
16. Сергей Ильич (2:38)
Лог EAC
Exact Audio Copy V0.99 prebeta 3 from 28. July 2007
EAC extraction logfile from 23. September 2007, 14:40
Аквариум / Треугольник
Used drive : PLEXTOR DVDR PX-716A Adapter: 1 ID: 0
Read mode : Secure
Utilize accurate stream : Yes
Defeat audio cache : Yes
Make use of C2 pointers : No
Read offset correction : 30
Overread into Lead-In and Lead-Out : Yes
Fill up missing offset samples with silence : Yes
Delete leading and trailing silent blocks : No
Null samples used in CRC calculations : No
Used interface : Native Win32 interface for Win NT & 2000
Used output format : Internal WAV Routines
Sample format : 44.100 Hz; 16 Bit; Stereo
TOC of the extracted CD
Track | Start | Length | Start sector | End sector
---------------------------------------------------------
1 | 0:00.32 | 1:07.25 | 32 | 5081
2 | 1:07.57 | 1:49.63 | 5082 | 13319
3 | 2:57.45 | 1:28.72 | 13320 | 19991
4 | 4:26.42 | 2:29.18 | 19992 | 31184
5 | 6:55.60 | 0:46.72 | 31185 | 34706
6 | 7:42.57 | 1:58.28 | 34707 | 43584
7 | 9:41.10 | 3:45.60 | 43585 | 60519
8 | 13:26.70 | 0:25.30 | 60520 | 62424
9 | 13:52.25 | 1:38.27 | 62425 | 69801
10 | 15:30.52 | 1:38.33 | 69802 | 77184
11 | 17:09.10 | 3:11.60 | 77185 | 91569
12 | 20:20.70 | 1:50.15 | 91570 | 99834
13 | 22:11.10 | 4:42.05 | 99835 | 120989
14 | 26:53.15 | 1:31.70 | 120990 | 127884
15 | 28:25.10 | 3:47.27 | 127885 | 144936
16 | 32:12.37 | 2:37.70 | 144937 | 156781
Range status and errors
Selected range
Filename D:AudioimgАквариум - Треугольник.wav
Peak level 97.7 %
Range quality 100.0 %
Copy CRC 8F61313A
Copy OK
No errors occurred
End of status report
превратятся в текст
скрытый текст
1981 - Синий альбом - Anthology-2002-CD01
Трэклист:
01. Железнодорожная Вода (5:41)
02. Герои Рок'н'Ролла (Молодая Шпана) (3:37)
03. Гость (2:01)
04. Странные объекты между светом и звуком (0:43)
05. Электрический Пёс (3:51)
06. Все что Я хочу (4:31)
07. Чай (2:19)
08. Плоскость (6:54)
09. Рутман (3:11)
10. В Подобную Ночь (3:00)
11. Единственный Дом (Джа даст Нам Всё) (2:14)
12. Река (4:19)
13. Пионерская, 38 [bonus track] (1:41)
14. 14 [bonus track] (3:44)
15. Вызываю Огонь на Себя [bonus track] (3:01)
Лог EAC
Отчёт EAC об извлечении, выполненном 15. марта 2006, 2:31 для диска:
Аквариум / Синий Альбом (Антология 2002)
Дисковод: TOSHIBA DVD-ROM SD-R6012 Adapter: 0 ID: 1
Режим чтения: Достоверный (C2: нет, Точный поток: да, Отключение кэша: да)
Коррекция смещения при чтении: 116
Способность читать области Lead-in и Lead-out : Нет
Выходной формат: Внутренние WAV-операции
44.100 Гц; 16 бит; стерео
Другие параметры:
Заполнение пропущенных сэмплов тишиной : Да
Удаление блоков с тишиной в начале и конце : Нет
Установленный внешний ASPI-интерфейс
Характеристики диапазона извлечения и сообщения об ошибках
Выбранный диапазон
Имя файла C:isoNoa1998-Both.side.of.Seacdimage.wav
Пиковый уровень 99.9 %
Качество диапазона 100.0 %
CRC C5C6AE0F
Копирование... OK
Ошибок не произошло
Конец отчёта
1981 - Треугольник
Трэклист:
01. Корнелий Шнапс (1:07)
02. Поручик Иванов (1:50)
03. Марш (1:29)
04. Старик Козлодоев (2:29)
05. Поэзия (0:47)
06. Два тракториста (1:58)
07. Мочалкин блюз (3:46)
08. Хорал (0:25)
09. Крюкообразность (1:38)
10. Матрос (1:38)
11. Миша из города скрипящих статуй (3:12)
12. Гиневер (1:50)
13. Начальник фарфоровой башни (4:42)
14. У императора Нерона (1:32)
15. Мой муравей (3:47)
16. Сергей Ильич (2:38)
Лог EAC
Exact Audio Copy V0.99 prebeta 3 from 28. July 2007
EAC extraction logfile from 23. September 2007, 14:40
Аквариум / Треугольник
Used drive : PLEXTOR DVDR PX-716A Adapter: 1 ID: 0
Read mode : Secure
Utilize accurate stream : Yes
Defeat audio cache : Yes
Make use of C2 pointers : No
Read offset correction : 30
Overread into Lead-In and Lead-Out : Yes
Fill up missing offset samples with silence : Yes
Delete leading and trailing silent blocks : No
Null samples used in CRC calculations : No
Used interface : Native Win32 interface for Win NT & 2000
Used output format : Internal WAV Routines
Sample format : 44.100 Hz; 16 Bit; Stereo
TOC of the extracted CD
Track | Start | Length | Start sector | End sector
---------------------------------------------------------
1 | 0:00.32 | 1:07.25 | 32 | 5081
2 | 1:07.57 | 1:49.63 | 5082 | 13319
3 | 2:57.45 | 1:28.72 | 13320 | 19991
4 | 4:26.42 | 2:29.18 | 19992 | 31184
5 | 6:55.60 | 0:46.72 | 31185 | 34706
6 | 7:42.57 | 1:58.28 | 34707 | 43584
7 | 9:41.10 | 3:45.60 | 43585 | 60519
8 | 13:26.70 | 0:25.30 | 60520 | 62424
9 | 13:52.25 | 1:38.27 | 62425 | 69801
10 | 15:30.52 | 1:38.33 | 69802 | 77184
11 | 17:09.10 | 3:11.60 | 77185 | 91569
12 | 20:20.70 | 1:50.15 | 91570 | 99834
13 | 22:11.10 | 4:42.05 | 99835 | 120989
14 | 26:53.15 | 1:31.70 | 120990 | 127884
15 | 28:25.10 | 3:47.27 | 127885 | 144936
16 | 32:12.37 | 2:37.70 | 144937 | 156781
Range status and errors
Selected range
Filename D:AudioimgАквариум - Треугольник.wav
Peak level 97.7 %
Range quality 100.0 %
Copy CRC 8F61313A
Copy OK
No errors occurred
End of status report
[Профиль]  [ЛС] 

brhr


Уровень: 0

Отд: 0 B

На своих: 0 B

Скачано: 0 B

0 уе

post 02-Окт-2008 08:12 (спустя 8 часов)

[Цитировать] 

RyBak писал(а):

Сегодня узнал интересную вещь:
если копирнуть не заголовок, а сам спойлер, то всё его содержимое будет у вас "в руках".
пример
1981 - Синий альбом - Anthology-2002-CD01
Трэклист:
01. Железнодорожная Вода (5:41)
02. Герои Рок'н'Ролла (Молодая Шпана) (3:37)
03. Гость (2:01)
04. Странные объекты между светом и звуком (0:43)
05. Электрический Пёс (3:51)
06. Все что Я хочу (4:31)
07. Чай (2:19)
08. Плоскость (6:54)
09. Рутман (3:11)
10. В Подобную Ночь (3:00)
11. Единственный Дом (Джа даст Нам Всё) (2:14)
12. Река (4:19)
13. Пионерская, 38 [bonus track] (1:41)
14. 14 [bonus track] (3:44)
15. Вызываю Огонь на Себя [bonus track] (3:01)
Лог EAC
Отчёт EAC об извлечении, выполненном 15. марта 2006, 2:31 для диска:
Аквариум / Синий Альбом (Антология 2002)
Дисковод: TOSHIBA DVD-ROM SD-R6012 Adapter: 0 ID: 1
Режим чтения: Достоверный (C2: нет, Точный поток: да, Отключение кэша: да)
Коррекция смещения при чтении: 116
Способность читать области Lead-in и Lead-out : Нет
Выходной формат: Внутренние WAV-операции
44.100 Гц; 16 бит; стерео
Другие параметры:
Заполнение пропущенных сэмплов тишиной : Да
Удаление блоков с тишиной в начале и конце : Нет
Установленный внешний ASPI-интерфейс
Характеристики диапазона извлечения и сообщения об ошибках
Выбранный диапазон
Имя файла C:isoNoa1998-Both.side.of.Seacdimage.wav
Пиковый уровень 99.9 %
Качество диапазона 100.0 %
CRC C5C6AE0F
Копирование... OK
Ошибок не произошло
Конец отчёта
1981 - Треугольник
Трэклист:
01. Корнелий Шнапс (1:07)
02. Поручик Иванов (1:50)
03. Марш (1:29)
04. Старик Козлодоев (2:29)
05. Поэзия (0:47)
06. Два тракториста (1:58)
07. Мочалкин блюз (3:46)
08. Хорал (0:25)
09. Крюкообразность (1:38)
10. Матрос (1:38)
11. Миша из города скрипящих статуй (3:12)
12. Гиневер (1:50)
13. Начальник фарфоровой башни (4:42)
14. У императора Нерона (1:32)
15. Мой муравей (3:47)
16. Сергей Ильич (2:38)
Лог EAC
Exact Audio Copy V0.99 prebeta 3 from 28. July 2007
EAC extraction logfile from 23. September 2007, 14:40
Аквариум / Треугольник
Used drive : PLEXTOR DVDR PX-716A Adapter: 1 ID: 0
Read mode : Secure
Utilize accurate stream : Yes
Defeat audio cache : Yes
Make use of C2 pointers : No
Read offset correction : 30
Overread into Lead-In and Lead-Out : Yes
Fill up missing offset samples with silence : Yes
Delete leading and trailing silent blocks : No
Null samples used in CRC calculations : No
Used interface : Native Win32 interface for Win NT & 2000
Used output format : Internal WAV Routines
Sample format : 44.100 Hz; 16 Bit; Stereo
TOC of the extracted CD
Track | Start | Length | Start sector | End sector
---------------------------------------------------------
1 | 0:00.32 | 1:07.25 | 32 | 5081
2 | 1:07.57 | 1:49.63 | 5082 | 13319
3 | 2:57.45 | 1:28.72 | 13320 | 19991
4 | 4:26.42 | 2:29.18 | 19992 | 31184
5 | 6:55.60 | 0:46.72 | 31185 | 34706
6 | 7:42.57 | 1:58.28 | 34707 | 43584
7 | 9:41.10 | 3:45.60 | 43585 | 60519
8 | 13:26.70 | 0:25.30 | 60520 | 62424
9 | 13:52.25 | 1:38.27 | 62425 | 69801
10 | 15:30.52 | 1:38.33 | 69802 | 77184
11 | 17:09.10 | 3:11.60 | 77185 | 91569
12 | 20:20.70 | 1:50.15 | 91570 | 99834
13 | 22:11.10 | 4:42.05 | 99835 | 120989
14 | 26:53.15 | 1:31.70 | 120990 | 127884
15 | 28:25.10 | 3:47.27 | 127885 | 144936
16 | 32:12.37 | 2:37.70 | 144937 | 156781
Range status and errors
Selected range
Filename D:AudioimgАквариум - Треугольник.wav
Peak level 97.7 %
Range quality 100.0 %
Copy CRC 8F61313A
Copy OK
No errors occurred
End of status report
превратятся в текст
скрытый текст
1981 - Синий альбом - Anthology-2002-CD01
Трэклист:
01. Железнодорожная Вода (5:41)
02. Герои Рок'н'Ролла (Молодая Шпана) (3:37)
03. Гость (2:01)
04. Странные объекты между светом и звуком (0:43)
05. Электрический Пёс (3:51)
06. Все что Я хочу (4:31)
07. Чай (2:19)
08. Плоскость (6:54)
09. Рутман (3:11)
10. В Подобную Ночь (3:00)
11. Единственный Дом (Джа даст Нам Всё) (2:14)
12. Река (4:19)
13. Пионерская, 38 [bonus track] (1:41)
14. 14 [bonus track] (3:44)
15. Вызываю Огонь на Себя [bonus track] (3:01)
Лог EAC
Отчёт EAC об извлечении, выполненном 15. марта 2006, 2:31 для диска:
Аквариум / Синий Альбом (Антология 2002)
Дисковод: TOSHIBA DVD-ROM SD-R6012 Adapter: 0 ID: 1
Режим чтения: Достоверный (C2: нет, Точный поток: да, Отключение кэша: да)
Коррекция смещения при чтении: 116
Способность читать области Lead-in и Lead-out : Нет
Выходной формат: Внутренние WAV-операции
44.100 Гц; 16 бит; стерео
Другие параметры:
Заполнение пропущенных сэмплов тишиной : Да
Удаление блоков с тишиной в начале и конце : Нет
Установленный внешний ASPI-интерфейс
Характеристики диапазона извлечения и сообщения об ошибках
Выбранный диапазон
Имя файла C:isoNoa1998-Both.side.of.Seacdimage.wav
Пиковый уровень 99.9 %
Качество диапазона 100.0 %
CRC C5C6AE0F
Копирование... OK
Ошибок не произошло
Конец отчёта
1981 - Треугольник
Трэклист:
01. Корнелий Шнапс (1:07)
02. Поручик Иванов (1:50)
03. Марш (1:29)
04. Старик Козлодоев (2:29)
05. Поэзия (0:47)
06. Два тракториста (1:58)
07. Мочалкин блюз (3:46)
08. Хорал (0:25)
09. Крюкообразность (1:38)
10. Матрос (1:38)
11. Миша из города скрипящих статуй (3:12)
12. Гиневер (1:50)
13. Начальник фарфоровой башни (4:42)
14. У императора Нерона (1:32)
15. Мой муравей (3:47)
16. Сергей Ильич (2:38)
Лог EAC
Exact Audio Copy V0.99 prebeta 3 from 28. July 2007
EAC extraction logfile from 23. September 2007, 14:40
Аквариум / Треугольник
Used drive : PLEXTOR DVDR PX-716A Adapter: 1 ID: 0
Read mode : Secure
Utilize accurate stream : Yes
Defeat audio cache : Yes
Make use of C2 pointers : No
Read offset correction : 30
Overread into Lead-In and Lead-Out : Yes
Fill up missing offset samples with silence : Yes
Delete leading and trailing silent blocks : No
Null samples used in CRC calculations : No
Used interface : Native Win32 interface for Win NT & 2000
Used output format : Internal WAV Routines
Sample format : 44.100 Hz; 16 Bit; Stereo
TOC of the extracted CD
Track | Start | Length | Start sector | End sector
---------------------------------------------------------
1 | 0:00.32 | 1:07.25 | 32 | 5081
2 | 1:07.57 | 1:49.63 | 5082 | 13319
3 | 2:57.45 | 1:28.72 | 13320 | 19991
4 | 4:26.42 | 2:29.18 | 19992 | 31184
5 | 6:55.60 | 0:46.72 | 31185 | 34706
6 | 7:42.57 | 1:58.28 | 34707 | 43584
7 | 9:41.10 | 3:45.60 | 43585 | 60519
8 | 13:26.70 | 0:25.30 | 60520 | 62424
9 | 13:52.25 | 1:38.27 | 62425 | 69801
10 | 15:30.52 | 1:38.33 | 69802 | 77184
11 | 17:09.10 | 3:11.60 | 77185 | 91569
12 | 20:20.70 | 1:50.15 | 91570 | 99834
13 | 22:11.10 | 4:42.05 | 99835 | 120989
14 | 26:53.15 | 1:31.70 | 120990 | 127884
15 | 28:25.10 | 3:47.27 | 127885 | 144936
16 | 32:12.37 | 2:37.70 | 144937 | 156781
Range status and errors
Selected range
Filename D:AudioimgАквариум - Треугольник.wav
Peak level 97.7 %
Range quality 100.0 %
Copy CRC 8F61313A
Copy OK
No errors occurred
End of status report
точно. не знал..
 

Xamer


Уровень: 4

Отд: 42,129 TB

На своих: 17,936 TB

Скачано: 13,326 TB

571668 уе

Стаж: 9 лет 6 месяцев

Сообщений: 8089

post 02-Окт-2008 13:49 (спустя 5 часов)

[Цитировать] 

да вообще супер!))
[Профиль]  [ЛС] 

Negress


Уровень: 0

Отд: 3,224 TB

На своих: 2,267 TB

Скачано: 696,93 GB

996557 уе

Стаж: 8 лет 9 месяцев

Сообщений: 761

post 17-Мар-2009 15:46 (спустя 5 месяцев 15 дней)

[Цитировать] 

а в опере этого нет!!!

_________________
МУЖчина мой Nigger!!! Люблю тебя, мой чернопузенький!!!
МОДЕРИРУЮ Сериалы, Юмор, Остальное видео, Обучающее видео. Обращайтесь!
[Профиль]  [ЛС] 

RAMONASS


Уровень: 1

Отд: 6,247 TB

На своих: 1,214 TB

Скачано: 1,625 TB

32946 уе

Стаж: 9 лет 4 месяца

Сообщений: 36

post 25-Июл-2009 09:34 (спустя 4 месяца 7 дней)

[Цитировать] 

пожалуйста объясните почему ББкод работает по разному в Мозилле3.0.11 и ИЕ7??
пример
ИЕ7
pic
Мозилла
pic

Код:

[color=darkred][b][spoiler="ПЕРЕДОВАЯ ЛИНИЯ"][/b][/color]
[align=center][b][color=blue]РЕПОРТАЖ[/color][/b][/align]
[b]КРИ 2009[/b]
КРИ в этом году, как и весна, пришел поздно — и это тоже отчасти погодное явление. Климат этой весной не располагает к масштабным развлекательным мероприятиям... В результате все обошлось, но КРИ, неразрывно связанный для нас с последними выходными апреля, «съехал» вниз по календарю почти на месяц.
И все же мы снова в «Космосе» — весна наступила, в седьмой раз.
[align=center][b][color=blue]ИГРЫ БУДУЩЕГО[/color][/b]
[u]Folio Verso
Земля-2
Империя: Смутное время
Коллапс: Ярость
Мародер
Фобос: 1953[/u][/align]
[b]Прошлое и будущее Wargaming.net [/b]
[color=gray]Автор: Александр Яковенко[/color]
В 2009 году минская студия Wargaming.net анонсировала два новых проекта, причем каждый из них удивителен. Стратегия в реальном времени OrderofWar — эксперимент знаменитого японского издательства, обреченный на внимание со стороны всей мировой прессы. Сетевой боевик про танки WorldofTanks — и вовсе нечто невиданное.
Откуда взялись настолько нестандартные проекты? Почему студия перешла от пошаговых стратегий к реальному времени?

[align=center][b][color=blue]МАКСИМУМ ВНИМАНИЯ[/color][/b][/align]
Кто станет главным героем Bioshock 2? Чем продолжится Left 4 Dead? Когда убийца из Assassin's Creed 2 найдет новых жертв? Проекты высшего уровня привлекают интерес постоянно, без пауз и антрактов, но, увы, подробные статьи не могут появляться в каждом номере. Так обидно упускать свежие детали! С этого момента мы будем ежемесячно рассказывать о том, как растут новые лидеры.
[align=center][u]Assassin's Creed 2
BioShock 2
Dragon Age: Origins
Left 4 Dead 2
Risen
S.T.A.L.K.E.R.: Зов Припяти
Supreme Commander 2[/u][/align][/spoiler]
http://ivtorrents.ru/forum/viewtopic.php?t=43573
[Профиль]  [ЛС] 

Revenge


Уровень: 0

Отд: 0 B

На своих: 0 B

Скачано: 0 B

0 уе

post 25-Июл-2009 09:40 (спустя 6 минут)

[Цитировать] 

Цитата:

ИЕ
этим всё сказано Smile
 

RAMONASS


Уровень: 1

Отд: 6,247 TB

На своих: 1,214 TB

Скачано: 1,625 TB

32946 уе

Стаж: 9 лет 4 месяца

Сообщений: 36

post 25-Июл-2009 09:50 (спустя 10 минут)

[Цитировать] 

так в Ие всё как раз нормально отображается и хотелось бы чтоб так и в Мозилле было,вот я и привёл пример чёб узнать почему такие различия,может у меня браузеры не так настроены иль трабла в чём то другом
[Профиль]  [ЛС] 

evilslon


Уровень: 0

Отд: 0 B

На своих: 0 B

Скачано: 0 B

0 уе

post 26-Июл-2009 09:09 (спустя 23 часа)

[Цитировать] 

RAMONASS
В Опере все выглядит отлично (по крайней мере, как на скрине IE).
 

RAMONASS


Уровень: 1

Отд: 6,247 TB

На своих: 1,214 TB

Скачано: 1,625 TB

32946 уе

Стаж: 9 лет 4 месяца

Сообщений: 36

post 26-Июл-2009 09:41 (спустя 32 минуты)

[Цитировать] 

Don Valkov
дык у меня уже есть FireFox ,и в нём как раз (по сравнению с ИЕ) ББкод глючит,и мне хотелось бы узнать причину этого.....
evilslon
спасибо что потестил,буду знать....

Вопрос остался: "кто нибудь знает почему такие различия в браузерах???"
[Профиль]  [ЛС] 

Thief


Уровень: 0

Отд: 0 B

На своих: 0 B

Скачано: 0 B

0 уе

post 26-Июл-2009 12:45 (спустя 3 часа)

[Цитировать] 

Тоже самое что и у тебя на скринах,смотрел Firefox 3.5.1 и IE 8
 

Nigger


Уровень: 0

Отд: 4,92 TB

На своих: 1,149 TB

Скачано: 1,334 TB

389698 уе

Стаж: 8 лет 10 месяцев

Сообщений: 244

post 27-Июл-2009 15:28 (спустя 1 день 2 часа)

[Цитировать] 

у меня все нормально в FF видит. ищи проблему у себя
[Профиль]  [ЛС] 

добрый дантист


Уровень: 0

Отд: 0 B

На своих: 0 B

Скачано: 0 B

0 уе

post 02-Дек-2009 14:02 (спустя 4 месяца 5 дней)

[Цитировать] 

День добрый! Хочу выложить CD для отдачи, но как сделать скин (обложку диска), ведь на диске кроме музыки нет ничего?
 
Показать сообщения:    
Ответить на тему

Текущее время: 28-Июл 15:51

Часовой пояс: GMT + 3



Вы не можете начинать темы
Вы не можете отвечать на сообщения
Вы не можете редактировать свои сообщения
Вы не можете удалять свои сообщения
Вы не можете голосовать в опросах
Вы не можете прикреплять файлы к сообщениям
Вы не можете скачивать файлы